<?xml version="1.0" standalone="no"?>
<!DOCTYPE svg PUBLIC "-//W3C//DTD SVG 1.1//EN" "http://www.w3.org/Graphics/SVG/1.1/DTD/svg11.dtd" >
<svg xmlns="http://www.w3.org/2000/svg">
<metadata>
Created by FontPrep 20130207 at Fri Dec  4 16:16:05 2015
 By Sanjay Maharjan
(c) 2012 Klim Type Foundry. All Rights Reserved.
</metadata>
<defs>
<font id="420ac0d417955877b68996d33d6f0f54" horiz-adv-x='1024' >
  <font-face 
    font-family="Pitch-Regular"
    font-weight="400"
    font-stretch="normal"
    units-per-em="2048"
    panose-1="2 6 5 9 3 2 6 6 2 3"
    ascent="1638"
    descent="-410"
    x-height="868"
    cap-height="1167"
    bbox="0 -586 1414 2032"
    underline-thickness="102"
    underline-position="-112"
    unicode-range="U+0020-2265"
  />
<missing-glyph 
 />
    <glyph glyph-name=".notdef" 
 />
    <glyph glyph-name=".null" horiz-adv-x="0" 
 />
    <glyph glyph-name="nonmarkingreturn" 
 />
    <glyph glyph-name="space" unicode=" " 
 />
    <glyph glyph-name="exclam" unicode="!" 
d="M629 1196q45 0 73 -32t23 -79l-68 -690h-59l-66 690q-4 45 24 78t73 33zM629 -23q-53 0 -91 38q-38 39 -38 93t38 92t91 38t91 -38t38 -92t-38 -92t-91 -39z" />
    <glyph glyph-name="quotedbl" unicode="&#x22;" 
d="M326 1184q0 36 26 68q27 32 76 32q102 0 102 -117q0 -53 -18 -137l-61 -332h-45l-60 332q-20 118 -20 154zM829 1284q102 0 103 -117q0 -53 -19 -137l-61 -332h-45l-59 332q-20 118 -20 154t26 68q27 32 75 32z" />
    <glyph glyph-name="numbersign" unicode="#" 
d="M418 375l-96 -375h-93l97 375h-236l23 84h233l66 250h-240l18 84h242l96 374h95l-97 -374h314l96 374h92l-96 -374h235l-22 -84h-234l-65 -250h239l-18 -84h-242l-96 -375h-94l96 375h-313zM754 459l63 250h-313l-64 -250h314z" />
    <glyph glyph-name="dollar" unicode="$" 
d="M678 -332h-92v305q-186 8 -316 83q-129 75 -129 202q0 51 32 86t78 35t76 -28q29 -27 29 -67t-22 -65t-55 -22q10 -49 100 -87t207 -44v499l-86 21q-162 38 -240 106t-78 198t114 214t290 92v272h92v-274q170 -14 278 -93t109 -190q0 -49 -30 -82q-31 -33 -73 -33t-70 28
q-28 26 -28 63t22 61t52 21q-12 47 -82 85t-178 46v-451l153 -35q272 -63 273 -299q0 -145 -119 -238t-307 -104v-305zM678 66h4q139 10 228 76t89 173q0 150 -192 199l-129 31v-479zM287 891q0 -86 57 -131t170 -72l72 -16v430q-131 -8 -215 -66t-84 -145z" />
    <glyph glyph-name="percent" unicode="%" 
d="M309 1196q102 0 175 -73t73 -175t-73 -174t-174 -72t-174 73t-73 174t72 174t174 73zM1100 1192l61 -53l-1001 -1159l-62 53zM308 1106q-64 0 -110 -46q-44 -46 -44 -112t45 -110t111 -43q66 0 111 45q46 45 46 108t-47 111q-48 47 -112 47zM946 469q102 0 175 -73
t73 -175t-73 -174t-175 -72t-174 72t-72 174t72 175t174 73zM946 66q66 0 112 45t46 109t-46 110t-112 47q-66 0 -110 -45t-45 -111q1 -67 45 -111t110 -44z" />
    <glyph glyph-name="ampersand" unicode="&#x26;" 
d="M379 -27q-119 0 -217 87q-98 86 -98 220t75 213q76 79 236 158l-17 19q-43 46 -63 72t-46 81t-26 109q0 112 79 188t207 76t203 -76q74 -76 74 -182t-70 -177t-186 -132l261 -293l286 295l70 -70l-293 -297l154 -170h213v-94h-328v70l-109 123l-28 -29q-98 -98 -178 -144
t-199 -47zM170 288q0 -96 68 -156t154 -60q87 0 153 39t145 120l31 31l-285 320q-142 -72 -204 -136t-62 -158zM684 930q0 70 -47 122t-129 52t-131 -49t-49 -123t50 -132q18 -22 64 -75l25 -29q110 55 164 110q53 54 53 124z" />
    <glyph glyph-name="quotesingle" unicode="'" 
d="M629 1284q102 0 102 -117q0 -53 -18 -137l-62 -332h-45l-59 332q-21 118 -21 154t27 68t76 32z" />
    <glyph glyph-name="parenleft" unicode="(" 
d="M451 524q0 -240 127 -429t337 -316l-55 -82q-514 311 -514 827t514 828l58 -80q-211 -128 -339 -318t-128 -430z" />
    <glyph glyph-name="parenright" unicode=")" 
d="M807 524q0 240 -128 430t-339 318l57 80q514 -312 514 -828t-514 -827l-55 82q211 127 338 316t127 429z" />
    <glyph glyph-name="asterisk" unicode="*" 
d="M588 1321h82v-330l288 166l43 -72l-288 -165l288 -168l-43 -72l-288 168v-332h-82v332l-289 -168l-43 72l291 168l-291 165l43 72l289 -166v330z" />
    <glyph glyph-name="plus" unicode="+" 
d="M676 549v-416h-94v416h-416v94h416v416h94v-416h416v-94h-416z" />
    <glyph glyph-name="comma" unicode="," 
d="M487 125q0 53 41 94q42 41 100 41t99 -42t41 -96t-41 -112l-258 -368l-63 41l186 311q-45 10 -75 44t-30 87z" />
    <glyph glyph-name="hyphen" unicode="-" 
d="M379 502v119h500v-119h-500z" />
    <glyph glyph-name="period" unicode="." 
d="M489 119q0 59 41 100q42 41 100 41t99 -42t41 -99t-41 -99t-99 -43q-58 0 -100 41q-41 42 -41 101z" />
    <glyph glyph-name="slash" unicode="/" 
d="M145 -227l877 1525l90 -47l-876 -1525z" />
    <glyph glyph-name="zero" unicode="0" 
d="M1006 584q0 219 -100 364q-100 146 -277 146t-277 -146t-100 -364t100 -364t276 -146t278 146q100 146 100 364zM141 584q0 264 134 438q133 174 353 174t354 -174t134 -438t-134 -438t-353 -175q-219 0 -354 174q-134 175 -134 439z" />
    <glyph glyph-name="one" unicode="1" 
d="M721 1167v-1028l45 -45h369v-94h-953v94h387l45 45v926l-360 -246l-57 84l385 264h139z" />
    <glyph glyph-name="two" unicode="2" 
d="M637 1196q158 0 256 -92t98 -242q0 -82 -50 -165t-101 -131t-150 -128l-411 -344h620l49 45v205h96v-344h-886v119l460 391q96 82 140 123q43 41 82 104t39 127q0 106 -70 168t-186 64q-219 0 -381 -242l-80 61q80 125 198 203q119 78 277 78z" />
    <glyph glyph-name="three" unicode="3" 
d="M203 1067v100h772v-125l-424 -362q47 23 117 22q168 0 260 -95t92 -230t-67 -239q-173 -267 -734 -347l-20 98q717 113 716 482q0 104 -70 175q-71 70 -199 70t-234 -63l-54 72l508 442h-663z" />
    <glyph glyph-name="four" unicode="4" 
d="M1180 287h-265l-45 -45v-242h-106v242l-45 45h-596v119q145 170 305 422t246 460l104 -33q-166 -393 -540 -874h526v301h106v-301h310v-94z" />
    <glyph glyph-name="five" unicode="5" 
d="M989 1167v-100h-618l-23 -492q53 57 140 93t184 34q180 0 273 -100t93 -232t-66 -236q-172 -265 -728 -345l-21 98q336 55 523 167t188 313q0 94 -69 167t-195 72q-168 0 -287 -125h-135l28 686h713z" />
    <glyph glyph-name="six" unicode="6" 
d="M963 383q-1 133 -95 225t-231 92t-231 -92t-94 -225t94 -224t231 -91t231 91t95 224zM634 797q188 0 312 -118q123 -118 123 -293t-126 -295t-306 -120q-113 0 -212 49t-165 155t-65 269q0 293 202 520q203 226 561 324l31 -98q-526 -133 -659 -569q116 176 304 176z" />
    <glyph glyph-name="seven" unicode="7" 
d="M264 807h-96v360h950v-112l-614 -1270l-92 41l598 1243h-701l-45 -45v-217z" />
    <glyph glyph-name="eight" unicode="8" 
d="M629 -27q-187 -1 -313 95t-126 256q0 118 74 200t193 103v12q-96 23 -162 99t-66 190q0 156 112 251t288 95q175 0 287 -95t112 -251q0 -115 -66 -191t-161 -98v-12q119 -21 193 -103t73 -200q0 -160 -126 -256t-312 -95zM629 72q143 0 236 66t93 189q0 125 -90 189
t-240 64t-239 -65q-90 -65 -90 -189t93 -189q94 -65 237 -65zM629 684q131 0 212 65t81 181t-80 182q-80 64 -213 64t-213 -65t-80 -181t81 -182q81 -64 212 -64z" />
    <glyph glyph-name="nine" unicode="9" 
d="M293 784q0 -133 94 -225t231 -92t232 92q94 92 94 225q0 132 -94 224t-232 92t-231 -92q-94 -92 -94 -224zM624 371q-192 -1 -315 117t-123 293t126 295t306 120q113 0 212 -49t157 -139q72 -119 72 -285q0 -317 -214 -575t-579 -359l-33 96q295 76 467 259t230 407
q-114 -180 -306 -180z" />
    <glyph glyph-name="colon" unicode=":" 
d="M489 709q0 59 41 100q42 41 100 41t99 -42t41 -99t-41 -99t-99 -43q-58 0 -100 41q-41 42 -41 101zM489 119q0 59 41 100q42 41 100 41t99 -42t41 -99t-41 -99t-99 -43q-58 0 -100 41q-41 42 -41 101z" />
    <glyph glyph-name="semicolon" unicode=";" 
d="M489 709q0 59 41 100q42 41 100 41t99 -42t41 -99t-41 -99t-99 -43q-58 0 -100 41q-41 42 -41 101zM487 125q0 53 41 94q42 41 100 41t99 -42t41 -96t-41 -112l-258 -368l-63 41l186 311q-45 10 -75 44t-30 87z" />
    <glyph glyph-name="less" unicode="&#x3c;" 
d="M225 496v106l779 369v-107l-674 -315l674 -313v-109z" />
    <glyph glyph-name="equal" unicode="=" 
d="M178 659v95h901v-95h-901zM178 358v93h901v-93h-901z" />
    <glyph glyph-name="greater" unicode="&#x3e;" 
d="M1032 489l-778 -368v108l674 314l-674 315v107l778 -369v-107z" />
    <glyph glyph-name="question" unicode="?" 
d="M715 108q0 -54 -38 -92t-92 -39q-54 1 -91 39t-37 92t37 92t91 38t92 -38t38 -92zM643 375h-115v207q205 49 302 110q98 61 98 176t-91 175q-91 61 -221 61t-214 -50q-85 -50 -93 -114q94 -23 94 -94q1 -39 -29 -67q-30 -27 -76 -27t-81 36t-35 93q0 135 123 225t305 90
t304 -87t122 -235t-103 -230q-103 -81 -290 -128v-141z" />
    <glyph glyph-name="at" unicode="@" 
d="M725 717q-86 0 -140 -48q-55 -48 -55 -124t54 -125t141 -49q135 0 205 125v96q-66 125 -205 125zM726 283q-136 -1 -218 75t-82 188t82 186t220 73q138 0 204 -100v28q0 209 -81 325t-248 116t-263 -124t-96 -345v-289q0 -219 101 -342t272 -123t317 117l47 -80
q-68 -62 -167 -98t-202 -35q-217 -1 -342 149t-125 412v289q0 263 122 413t336 150q213 0 319 -142t106 -399v-274q0 -82 70 -82q31 0 82 47l39 -70q-67 -70 -129 -70q-119 1 -154 109q-74 -104 -210 -104z" />
    <glyph glyph-name="A" unicode="A" 
d="M469 94v-94h-449v94h127l418 1073h127l418 -1073h127v-94h-457v94h168l37 37l-106 275h-506l-107 -275l35 -37h168zM842 500l-217 563l-217 -563h434z" />
    <glyph glyph-name="B" unicode="B" 
d="M1133 328q0 -328 -459 -328h-590v94h178l45 45v889l-45 45h-178v94h567q211 1 319 -77t107 -226q0 -98 -57 -163q-58 -64 -158 -89q115 -12 193 -92t78 -192zM645 653q328 0 328 210t-328 210h-235v-420h235zM410 561v-467h260q358 0 358 234t-358 233h-260z" />
    <glyph glyph-name="C" unicode="C" 
d="M679 -29q-257 0 -405 174q-147 175 -147 439t145 438t385 174q103 0 189 -45t135 -121l23 10v127h94v-385h-76q-49 154 -144 233t-221 79q-199 0 -309 -144t-110 -365q0 -220 113 -366q114 -145 313 -145q233 0 380 180l66 -74q-174 -209 -431 -209z" />
    <glyph glyph-name="D" unicode="D" 
d="M516 0h-436v94h131l45 47v887l-45 45h-131v94h436q299 1 462 -161t163 -422t-163 -422t-462 -162zM358 94h158q248 0 381 136t133 354t-133 353q-133 136 -381 136h-158v-979z" />
    <glyph glyph-name="E" unicode="E" 
d="M410 94h563l45 45v230h96v-369h-1030v94h178l45 45v889l-45 45h-178v94h1014v-360h-97v221l-45 45h-546v-426h284l45 45v133h86v-446h-86v133l-45 45h-284v-463z" />
    <glyph glyph-name="F" unicode="F" 
d="M754 0h-650v94h191l45 45v889l-45 45h-191v94h1035v-360h-97v221l-45 45h-555v-426h299l45 45v127h86v-434h-86v127l-45 45h-299v-418l45 -45h267v-94z" />
    <glyph glyph-name="G" unicode="G" 
d="M631 1094q-197 0 -309 -144t-111 -366q0 -222 110 -366t302 -144t342 209v141l-39 41h-160v94h424v-94h-86l-41 -43v-422h-98v131l-23 8q-57 -82 -147 -125t-181 -43q-231 0 -372 174q-142 175 -142 439t146 438t383 174q207 0 313 -166l23 10v127h96v-372h-80
q-102 299 -350 299z" />
    <glyph glyph-name="H" unicode="H" 
d="M739 1073v94h439v-94h-123l-45 -45v-889l45 -45h123v-94h-439v94h123l45 45v422h-557v-422l45 -45h123v-94h-438v94h123l45 45v889l-45 45h-123v94h438v-94h-123l-45 -45v-373h557v373l-45 45h-123z" />
    <glyph glyph-name="I" unicode="I" 
d="M213 1073v94h831v-94h-317l-45 -45v-889l45 -45h317v-94h-831v94h317l45 45v889l-45 45h-317z" />
    <glyph glyph-name="J" unicode="J" 
d="M838 453v575l-45 45h-344v94h696v-94h-156l-45 -45v-586q0 -227 -119 -349t-295 -122q-176 -1 -290 103t-113 243q0 59 36 99t85 41q49 0 80 -30q30 -30 30 -73q0 -42 -34 -72t-80 -26q20 -82 94 -135t202 -53t213 93t85 292z" />
    <glyph glyph-name="K" unicode="K" 
d="M518 94v-94h-438v94h123l45 45v889l-45 45h-123v94h438v-94h-123l-45 -45v-545l543 553l-37 37h-111v94h418v-94h-114l-402 -407l420 -572h141v-94h-448v94h121l34 37l-337 463l-228 -229v-226l45 -45h123z" />
    <glyph glyph-name="L" unicode="L" 
d="M98 1167h545v-94h-182l-45 -45v-934h563l45 45v283h96v-422h-1022v94h170l45 45v889l-45 45h-170v94z" />
    <glyph glyph-name="M" unicode="M" 
d="M291 1067v-928l45 -45h123v-94h-420v94h108l46 45v889l-46 45h-108v94h377l215 -686l217 686h371v-94h-109l-45 -45v-889l45 -45h109v-94h-420v94h123l45 45v928h-56l-227 -696h-111l-227 696h-55z" />
    <glyph glyph-name="N" unicode="N" 
d="M1024 0h-111l-567 1040v-901l45 -45h123v-94h-434v94h123l45 45v889l-45 45h-123v94h315l531 -989v850l-45 45h-123v94h434v-94h-123l-45 -45v-1028z" />
    <glyph glyph-name="O" unicode="O" 
d="M1040 584q0 219 -109 364q-111 146 -303 146t-302 -146t-109 -364q0 -218 110 -364q111 -146 303 -146t301 146t109 364zM1151 584q0 -264 -143 -438t-379 -175q-236 0 -379 174q-144 175 -144 439t144 438t379 174q236 0 379 -174t143 -438z" />
    <glyph glyph-name="P" unicode="P" 
d="M711 537h-289v-398l45 -45h285v-94h-668v94h190l45 45v889l-45 45h-190v94h627q457 0 456 -315q1 -315 -456 -315zM422 1073v-442h285q350 0 350 221t-350 221h-285z" />
    <glyph glyph-name="Q" unicode="Q" 
d="M217 584q0 -218 110 -364t302 -146q113 0 202 55l-153 197l82 63l151 -192q129 145 129 375t-109 376q-111 146 -303 146t-302 -146t-109 -364zM629 -29q-236 0 -379 174q-144 175 -144 439t144 438t379 174q236 0 379 -174t143 -454t-174 -455l141 -181l-82 -63
l-139 178q-117 -76 -268 -76z" />
    <glyph glyph-name="R" unicode="R" 
d="M532 0h-452v94h121l45 45v889l-45 45h-121v94h541q457 0 456 -315q0 -291 -393 -313l332 -443h198v-96h-331v94l-322 443h-213v-398l45 -45h139v-94zM348 1073v-442h268q350 0 351 221q0 221 -351 221h-268z" />
    <glyph glyph-name="S" unicode="S" 
d="M685 68q134 0 220 66t86 179q0 154 -194 203l-297 74q-158 42 -235 106t-77 197t109 218t278 85q219 0 343 -174l24 14v131h100v-376h-84q-113 309 -383 309q-123 0 -203 -58t-79 -146q0 -89 56 -132t169 -70l301 -76q276 -72 277 -301q0 -153 -114 -249t-298 -97
q-116 1 -224 57t-161 142l-25 -14v-156h-98v408h84q57 -168 174 -254t251 -86z" />
    <glyph glyph-name="T" unicode="T" 
d="M106 1167h1045v-422h-96v283l-45 45h-328v-934l45 -45h240v-94h-676v94h239l45 45v934h-327l-45 -45v-283h-97v422z" />
    <glyph glyph-name="U" unicode="U" 
d="M629 -29q-174 0 -288 114t-114 288v655l-45 45h-123v94h439v-94h-123l-45 -45v-649q0 -137 85 -223t214 -86t214 86t85 223v649l-45 45h-123v94h438v-94h-123l-45 -45v-655q0 -174 -114 -288t-287 -114z" />
    <glyph glyph-name="V" unicode="V" 
d="M20 1073v94h459v-94h-168l-35 -37l357 -925l356 925l-37 37h-166v94h451v-94h-127l-418 -1073h-127l-418 1073h-127z" />
    <glyph glyph-name="W" unicode="W" 
d="M803 1073v94h436v-94h-104l-136 -1073h-202l-166 782l-166 -782h-207l-133 1073h-107v94h443v-94h-195l-30 -37l112 -936h49l164 781h139l166 -781h49l111 936l-29 37h-194z" />
    <glyph glyph-name="X" unicode="X" 
d="M1237 94v-94h-467v94h148l28 29l-321 409l-326 -409l31 -29h147v-94h-457v94h138l407 510l-368 469h-123v94h458v-94h-153l-29 -29l283 -360l285 360l-29 29h-154v94h449v-94h-123l-371 -461l410 -518h137z" />
    <glyph glyph-name="Y" unicode="Y" 
d="M967 94v-94h-676v94h239l45 45v299l-428 635h-127v94h480v-94h-168l-37 -37l340 -510l336 510l-37 37h-168v94h471v-94h-127l-428 -635v-299l45 -45h240z" />
    <glyph glyph-name="Z" unicode="Z" 
d="M1018 377h100v-377h-981v113l846 960h-670l-45 -45v-229h-98v368h924v-123l-840 -950h719l45 45v238z" />
    <glyph glyph-name="bracketleft" unicode="[" 
d="M489 1237v-1427h447v-95h-543v1616h543v-94h-447z" />
    <glyph glyph-name="backslash" unicode="\" 
d="M1112 -227l-90 -47l-877 1525l91 47z" />
    <glyph glyph-name="bracketright" unicode="]" 
d="M768 1237h-446v94h542v-1616h-542v95h446v1427z" />
    <glyph glyph-name="asciicircum" unicode="^" 
d="M598 1196h90l348 -496h-118l-275 396l-274 -396h-119z" />
    <glyph glyph-name="underscore" unicode="_" 
d="M297 -256v100h664v-100h-664z" />
    <glyph glyph-name="grave" unicode="`" 
d="M469 1351q0 39 23 63t57 24q61 0 94 -70l141 -297l-32 -24l-236 223q-47 41 -47 81z" />
    <glyph glyph-name="a" unicode="a" 
d="M262 207q0 -68 51 -106t125 -38q193 0 383 201v197l-299 -72q-260 -47 -260 -182zM197 692q0 96 117 151q118 54 277 54t246 -82t87 -235v-369q0 -143 94 -143q55 0 123 75l53 -67q-86 -104 -175 -104t-139 50q-50 52 -57 144q-72 -86 -175 -140t-222 -54t-196 60
q-76 62 -76 172t86 172t264 95l317 74v37q0 227 -243 227q-147 0 -238 -51q53 -18 53 -78q1 -37 -27 -63q-28 -25 -71 -25t-71 28t-27 72z" />
    <glyph glyph-name="b" unicode="b" 
d="M348 0h-258v94h127l33 33v1001l-33 33h-143v94h274v-567q52 94 144 152t210 57q186 0 310 -133t125 -330q0 -197 -124 -330t-311 -133q-118 -1 -210 57t-144 152v-180zM1030 434q0 156 -93 261t-241 106q-239 0 -348 -250v-234q109 -250 348 -249q147 0 241 105
q93 105 93 261z" />
    <glyph glyph-name="c" unicode="c" 
d="M842 591q0 37 24 61t56 24q-14 53 -86 90t-179 37q-157 1 -271 -105t-114 -262t104 -262t292 -106q186 0 333 141l60 -76q-165 -162 -393 -162t-366 132t-138 330t144 331t334 133t302 -81q111 -81 111 -202q0 -51 -32 -85q-32 -33 -77 -33t-75 28q-29 29 -29 67z" />
    <glyph glyph-name="d" unicode="d" 
d="M639 1255h369v-1128l32 -33h127v-94h-258v180q-51 -96 -144 -153t-210 -58q-186 0 -310 133t-124 330t124 330t310 133q119 0 211 -57t143 -152v442l-32 33h-238v94zM561 799q-147 -1 -240 -105t-93 -261t92 -262q94 -105 241 -105q237 -1 348 249v236q-111 248 -348 248
z" />
    <glyph glyph-name="e" unicode="e" 
d="M657 -29q-223 0 -358 132t-135 330t134 331t340 133t326 -139t119 -344h-815q8 -150 110 -249t263 -99q201 0 346 139l55 -72q-162 -162 -385 -162zM633 803q-137 0 -237 -85t-124 -220h695q-29 145 -113 225t-221 80z" />
    <glyph glyph-name="f" unicode="f" 
d="M502 831h399v-94h-354l-45 -45v-553l45 -45h356v-94h-772v94h227l45 45v553l-45 45h-227v94h272q0 217 123 335t318 118q154 0 252 -73t98 -183q0 -55 -31 -88t-78 -33t-75 25q-28 26 -29 64q0 38 26 63t66 24q-47 115 -213 115t-262 -92t-96 -275z" />
    <glyph glyph-name="g" unicode="g" 
d="M821 33h-506q-111 -66 -111 -156t114 -143t297 -53t297 59t114 149q0 144 -205 144zM1128 -114q0 -124 -143 -212t-371 -88t-370 77t-142 203t140 216q-70 51 -70 141q0 57 37 105t96 71q-78 84 -78 205q1 121 99 207t238 86t224 -51q80 168 238 168q78 0 134 -45
t56 -103t-27 -87q-28 -29 -68 -29q-41 0 -67 26t-26 69q0 42 43 64q-23 18 -57 19q-100 0 -160 -133q84 -80 84 -204t-99 -210t-237 -86t-231 53q-100 -45 -101 -115q0 -43 30 -71t87 -29h430q145 0 229 -61q82 -62 82 -186zM831 596q0 88 -69 147q-70 59 -180 59t-181 -58
q-69 -60 -69 -148t69 -149q70 -60 181 -60q111 1 180 61t69 148z" />
    <glyph glyph-name="h" unicode="h" 
d="M561 94v-94h-469v94h141l46 45v977l-46 45h-141v94h285v-553q45 82 133 138t212 57q124 0 210 -83q88 -83 88 -245v-430l45 -45h139v-94h-469v94h142l45 45v404q0 258 -224 258q-204 0 -321 -221v-441l45 -45h139z" />
    <glyph glyph-name="i" unicode="i" 
d="M516 1211q0 50 34 84t83 34t84 -34t35 -84t-35 -84q-35 -33 -84 -33t-83 34t-34 83zM1094 94v-94h-875v94h352l45 45v590l-45 45h-352v94h496v-729l45 -45h334z" />
    <glyph glyph-name="j" unicode="j" 
d="M737 1211q0 50 34 84t83 34t84 -34t35 -84t-35 -84q-35 -33 -84 -33t-83 34t-34 83zM150 -96q0 57 32 95q33 38 80 38t77 -28q30 -27 30 -67t-29 -67t-72 -27q24 -72 94 -118t168 -45q139 0 225 93q85 93 85 283v668l-45 45h-471v94h614v-817q0 -225 -114 -341t-282 -116
t-280 94t-112 216z" />
    <glyph glyph-name="k" unicode="k" 
d="M571 94v-94h-485v94h150l45 45v977l-45 45h-156v94h299v-874l483 364l-14 29h-152v94h455v-94h-107l-397 -291l338 -389h219v-94h-350v94l-287 330l-188 -137v-148l45 -45h147z" />
    <glyph glyph-name="l" unicode="l" 
d="M1094 94v-94h-875v94h352l45 45v977l-45 45h-352v94h496v-1116l45 -45h334z" />
    <glyph glyph-name="m" unicode="m" 
d="M1221 0h-238v647q0 66 -30 109t-91 43q-117 0 -184 -183v-489l33 -33h94v-94h-223v647q0 66 -30 109t-91 43q-115 0 -182 -183v-489l32 -33h92v-94h-358v94h105l32 33v614l-32 33h-105v94h234v-141q25 76 76 123q52 47 127 47t125 -44t65 -124q25 74 81 121t138 47
t134 -58t52 -171v-541l33 -33h111v-94z" />
    <glyph glyph-name="n" unicode="n" 
d="M561 94v-94h-469v94h141l46 45v590l-46 45h-141v94h285v-166q45 82 133 138t212 57q124 0 210 -83q88 -83 88 -245v-430l45 -45h139v-94h-469v94h142l45 45v404q0 258 -224 258q-204 0 -321 -221v-441l45 -45h139z" />
    <glyph glyph-name="o" unicode="o" 
d="M991 434q0 156 -102 261t-260 105t-260 -104q-103 -106 -103 -262t102 -261t261 -105q158 0 260 105t102 261zM158 434q0 197 134 330t337 133t337 -133t134 -330t-134 -330t-337 -133t-337 133t-134 330z" />
    <glyph glyph-name="p" unicode="p" 
d="M618 -291v-94h-528v94h127l33 33v999l-33 33h-127v94h258v-180q52 94 144 152t210 57q186 0 310 -133t125 -330q0 -197 -124 -330t-311 -133q-119 -1 -211 57t-143 152v-438l33 -33h237zM1030 434q0 156 -93 261t-241 106q-239 0 -348 -250v-234q109 -250 348 -249
q147 0 241 105q93 105 93 261z" />
    <glyph glyph-name="q" unicode="q" 
d="M121 434q0 197 124 330t310 133q119 0 211 -57t143 -152v180h258v-94h-127l-32 -33v-999l32 -33h127v-94h-528v94h238l32 33v438q-51 -94 -143 -151t-211 -58q-186 0 -310 133t-124 330zM561 801q-147 1 -240 -105t-93 -262t92 -261q94 -105 241 -105q240 0 348 249v234
q-109 250 -348 250z" />
    <glyph glyph-name="r" unicode="r" 
d="M1009 539q-50 1 -78 25t-28 65t25 65t53 25q28 0 45 -12q2 14 -4 24q-8 72 -119 74q-174 0 -420 -307v-359l45 -45h381v-94h-800v94h231l45 45v590l-45 45h-231v94h374v-250q219 279 418 279q115 0 174 -58q59 -59 59 -137t-37 -120q-38 -42 -88 -43z" />
    <glyph glyph-name="s" unicode="s" 
d="M213 662q0 101 92 168t234 67q225 0 340 -145l22 8v108h92v-288h-78q-47 102 -149 165t-210 63t-174 -40q-65 -40 -65 -104q1 -64 47 -93t144 -49l299 -61q115 -25 173 -77t58 -161t-90 -181t-232 -71q-142 0 -241 46q-100 46 -158 118l-26 -16v-119h-92v307h86
q147 -246 409 -246q114 0 178 44q64 43 64 115t-42 102t-120 47l-289 57q-141 29 -207 82t-65 154z" />
    <glyph glyph-name="t" unicode="t" 
d="M90 774v94h256v316h103v-316h538v-94h-495l-46 -45v-315q0 -344 295 -344q190 0 320 184l65 -61q-147 -221 -385 -222q-179 -1 -287 103t-108 325v330l-45 45h-211z" />
    <glyph glyph-name="u" unicode="u" 
d="M694 868h285v-729l45 -45h139v-94h-282v166q-45 -82 -133 -138t-213 -56t-212 82q-87 83 -87 245v430l-46 45h-139v94h283v-542q0 -258 223 -258q207 0 324 221v440l-45 45h-142v94z" />
    <glyph glyph-name="v" unicode="v" 
d="M764 774v94h430v-94h-115l-399 -774h-102l-400 774h-115v94h439v-94h-160l-29 -35l320 -635l319 635l-28 35h-160z" />
    <glyph glyph-name="w" unicode="w" 
d="M809 774v94h397v-94h-100l-154 -774h-180l-143 557l-144 -557h-180l-153 774h-101v94h402v-94h-168l-25 -31l121 -657h43l139 561h135l140 -561h43l120 657l-24 31h-168z" />
    <glyph glyph-name="x" unicode="x" 
d="M1192 94v-94h-477v94h159l23 29l-270 270l-273 -270l25 -29h158v-94h-471v94h133l364 350l-342 330h-135v94h471v-94h-151l-23 -29l246 -245l245 245l-22 29h-152v94h465v-94h-133l-342 -328l369 -352h133z" />
    <glyph glyph-name="y" unicode="y" 
d="M86 -221q0 53 33 89t78 36t75 -27t31 -66q-1 -39 -25 -63t-63 -27q18 -47 92 -47t126 69t151 261l-400 770h-114v94h438v-94h-160l-29 -35l320 -635l319 635l-28 35h-160v94h430v-94h-115l-419 -813q-104 -203 -180 -289t-172 -86t-162 54t-66 139z" />
    <glyph glyph-name="z" unicode="z" 
d="M979 346h94v-346h-905v109l750 669h-584l-45 -45v-201h-94v336h847v-108l-753 -668h645l45 45v209z" />
    <glyph glyph-name="braceleft" unicode="{" 
d="M174 469v100h113q195 0 194 144q0 14 -28 160q-29 146 -29 196q0 121 79 195t204 74t219 -48l-27 -92q-90 43 -181 43t-140 -46t-50 -130q0 -41 29 -184t29 -168q0 -78 -48 -126t-114 -67q66 -18 114 -67t48 -125q0 -25 -29 -169t-29 -186q0 -84 50 -130t141 -46
q92 0 180 45l27 -94q-100 -47 -222 -47t-201 74t-79 194q0 49 29 197t28 162q0 141 -194 141h-113z" />
    <glyph glyph-name="bar" unicode="|" 
d="M682 1298v-1574h-107v1574h107z" />
    <glyph glyph-name="braceright" unicode="}" 
d="M1083 469h-112q-195 0 -195 -141q0 -14 29 -162t29 -197q0 -121 -79 -195t-201 -73q-122 0 -222 47l26 94q88 -45 180 -45t142 46q49 46 49 130q0 41 -29 185t-28 170q0 76 48 125t114 67q-66 18 -114 66t-48 127q0 25 28 168q29 143 29 184q0 84 -49 130t-141 46
t-181 -43l-26 92q94 47 219 47q125 1 204 -73t79 -195q0 -49 -29 -195t-29 -161q0 -143 195 -144h112v-100z" />
    <glyph glyph-name="asciitilde" unicode="~" 
d="M907 698h101q0 -110 -56 -178q-114 -136 -331 8q-113 76 -160 76t-79 -40t-32 -103h-100q0 111 56 177t138 67q82 0 194 -76t159 -76q47 -1 79 39t31 106z" />
    <glyph glyph-name="uni00A0" unicode="&#xa0;" 
 />
    <glyph glyph-name="exclamdown" unicode="&#xa1;" 
d="M657 573l68 -690q4 -47 -24 -79q-29 -32 -73 -32t-72 34q-28 32 -24 77l66 690h59zM629 991q53 0 91 -38t38 -92t-38 -92t-91 -38t-91 38t-38 92t38 92t91 38z" />
    <glyph glyph-name="cent" unicode="&#xa2;" 
d="M272 436q0 -136 84 -238q84 -101 222 -124v721q-134 -27 -220 -125t-86 -234zM672 -315h-94v290q-182 25 -298 152t-116 304t118 305t296 155v305h94v-299q170 -2 276 -84t107 -203q0 -49 -31 -82q-31 -32 -74 -32q-44 0 -72 28t-28 65t22 61t54 22q-12 53 -83 92
t-171 39v-735q190 8 329 141l60 -76q-158 -156 -389 -162v-286z" />
    <glyph glyph-name="sterling" unicode="&#xa3;" 
d="M1161 209q-1 -123 -67 -196t-170 -73t-294 112q-192 110 -266 110t-112 -45t-37 -117h-102q0 106 52 175t140 85v268h-176v95h176v88q0 223 123 354t317 131q152 0 251 -91t100 -208q0 -55 -31 -89t-78 -34t-76 26t-29 64t26 64q26 25 67 24q-23 62 -82 104t-145 42
q-150 0 -243 -100t-93 -287v-88h346v-95h-346v-270q82 -16 252 -116t244 -99q74 0 113 46q40 46 40 120h100z" />
    <glyph glyph-name="yen" unicode="&#xa5;" 
d="M967 94v-94h-676v94h244l45 45v205h-416v80h416v14l-99 146h-317v82h260l-277 407h-127v94h480v-94h-174l-37 -37l346 -510l342 510l-37 37h-174v94h471v-94h-127l-276 -407h262v-82h-318l-98 -146v-14h416v-80h-416v-205l45 -45h242z" />
    <glyph glyph-name="brokenbar" unicode="&#xa6;" 
d="M682 1298v-718h-107v718h107zM575 416h107v-692h-107v692z" />
    <glyph glyph-name="section" unicode="&#xa7;" 
d="M598 -410q-168 0 -273 102t-106 234q0 49 30 82t72 33q43 0 71 -27q28 -26 28 -62t-24 -61t-54 -22q12 -68 81 -126t183 -58t182 51t68 127q0 75 -33 115t-108 96l-293 209q-115 82 -168 145t-53 162q0 127 114 231q-14 41 -14 99q0 120 95 198t263 78q169 0 275 -101
t106 -235q0 -49 -30 -82t-73 -33q-42 0 -71 27q-28 27 -28 63q0 37 24 61t53 22q-11 68 -79 126t-184 58t-183 -51q-68 -51 -68 -136q0 -47 22 -85q21 -38 45 -58t77 -59l291 -207q117 -82 169 -147t52 -162q0 -127 -115 -232q14 -41 14 -98q0 -119 -95 -198t-263 -79z
M961 193q0 45 -25 86q-26 41 -52 63t-75 59l-307 220q-94 66 -140 118q-63 -67 -63 -139t39 -117t113 -98l305 -219q100 -74 139 -119q66 70 66 146z" />
    <glyph glyph-name="dieresis" unicode="&#xa8;" 
d="M417 1100q-48 0 -83 34t-35 80t35 81q35 34 83 34t82 -34q33 -34 33 -81q0 -46 -34 -80t-81 -34zM842 1098q-49 0 -83 34t-34 82t34 81q34 34 83 34t83 -34q33 -34 33 -82q0 -47 -34 -81t-82 -34z" />
    <glyph glyph-name="copyright" unicode="&#xa9;" 
d="M125 582q0 -204 148 -352q147 -148 355 -148t358 147t149 353q0 206 -150 354q-151 150 -357 150t-354 -150q-148 -149 -149 -354zM55 582q0 236 168 402t406 167q237 0 405 -167q168 -166 168 -402t-168 -403t-406 -167t-405 167q-168 167 -168 403zM638 256
q-144 0 -225 91t-81 231t81 229q81 90 203 90t181 -74l14 4v56h66v-211h-58q-53 154 -188 153q-102 0 -159 -70q-56 -71 -56 -177t57 -176t169 -70t192 92l51 -53q-103 -115 -247 -115z" />
    <glyph glyph-name="ordfeminine" unicode="&#xaa;" 
d="M485 121q0 59 42 102q41 43 101 43t102 -43t42 -102t-42 -101t-101 -43q-59 0 -102 42q-42 43 -42 102zM754 840v127l-230 -64q-152 -29 -151 -110q-1 -43 31 -66t81 -22q130 0 269 135zM305 1128q0 72 87 113t205 41q117 0 183 -59t66 -166v-258q0 -86 59 -86
q35 0 84 51l45 -62q-70 -78 -134 -78q-132 1 -144 134q-121 -133 -281 -133q-90 0 -144 43q-55 43 -55 120q0 78 56 118t172 65l250 63v25q0 147 -174 147q-100 0 -162 -30q39 -10 39 -48q-1 -38 -21 -57q-20 -18 -53 -18t-55 20t-23 55z" />
    <glyph glyph-name="guillemotleft" unicode="&#xab;" 
d="M569 166l-82 -66l-286 355l286 354l82 -66l-233 -288zM997 166l-82 -66l-286 355l286 354l82 -66l-233 -288z" />
    <glyph glyph-name="registered" unicode="&#xae;" 
d="M592 266h-250v66h57l29 28v435l-29 28h-57v64h287q246 0 245 -172q0 -150 -194 -168l166 -213h78v-68h-168v66l-160 213h-98v-185l28 -28h66v-66zM498 821v-209h129q170 0 170 104t-170 105h-129zM125 582q0 -204 148 -352q147 -148 355 -148t358 147t149 353
q0 206 -150 354q-151 150 -357 150t-354 -150q-148 -149 -149 -354zM55 582q0 236 168 402t406 167q237 0 405 -167q168 -166 168 -402t-168 -403t-406 -167t-405 167q-168 167 -168 403z" />
    <glyph glyph-name="macron" unicode="&#xaf;" 
d="M322 1200h614v-98h-614v98z" />
    <glyph glyph-name="degree" unicode="&#xb0;" 
d="M821 995q0 83 -56 141t-136 58t-136 -58q-57 -58 -57 -140t56 -140q56 -57 137 -57q82 0 137 57t55 139zM915 995q-1 -121 -83 -205t-202 -83q-120 0 -204 84q-84 85 -84 205t84 205t204 85t202 -85t83 -206z" />
    <glyph glyph-name="plusminus" unicode="&#xb1;" 
d="M182 88v94h893v-94h-893zM674 649v-338h-92v338h-400v94h400v336h92v-336h401v-94h-401z" />
    <glyph glyph-name="twosuperior" unicode="&#xb2;" 
d="M645 1276q111 0 179 -65t67 -167q0 -57 -37 -115t-71 -88t-105 -85l-268 -217h393l41 34v125h84v-241h-623v106l311 256q70 57 97 81t53 66q27 42 27 93t-43 89t-115 38q-147 0 -258 -162l-72 53q55 87 142 143t198 56z" />
    <glyph glyph-name="threesuperior" unicode="&#xb3;" 
d="M350 1171v84h533v-108l-262 -213l57 4q111 0 173 -64t62 -168q0 -106 -83 -194q-82 -88 -200 -133t-268 -66l-18 86q477 78 477 316q0 67 -45 111t-126 44t-156 -49l-45 62l339 288h-438z" />
    <glyph glyph-name="acute" unicode="&#xb4;" 
d="M707 1438q35 0 59 -24t22 -64q0 -40 -49 -80l-235 -223l-33 24l143 297q29 70 93 70z" />
    <glyph glyph-name="paragraph" unicode="&#xb6;" 
d="M780 33v491q-199 0 -342 82t-143 240t144 240t343 81h310v-94h-168l-45 -45v-1005q1 -209 -97 -319t-261 -110t-257 92t-94 218q0 57 33 95t80 38t77 -28q30 -27 29 -67q0 -40 -28 -67t-70 -27q14 -70 70 -116t151 -47q268 0 268 348z" />
    <glyph glyph-name="periodcentered" unicode="&#xb7;" 
d="M489 590q0 59 41 100q42 41 100 41t99 -42t41 -99q0 -58 -41 -100t-99 -42t-100 41q-41 42 -41 101z" />
    <glyph glyph-name="cedilla" unicode="&#xb8;" 
d="M760 -284q0 -87 -66 -134t-158 -47t-169 41q-78 41 -111 123l76 47q56 -133 198 -133t142 102q0 49 -47 78t-140 25l-69 47l63 143h80l-49 -114q118 0 184 -46t66 -132z" />
    <glyph glyph-name="onesuperior" unicode="&#xb9;" 
d="M682 1255v-682l37 -34h244v-82h-666v82h256l37 34v592l-238 -161l-49 73l260 178h119z" />
    <glyph glyph-name="ordmasculine" unicode="&#xba;" 
d="M289 954q0 140 97 234q96 94 242 94t243 -94t97 -234t-96 -234q-98 -95 -243 -95t-243 95q-97 95 -97 234zM485 121q0 59 42 102q41 43 101 43t102 -43t42 -102t-42 -101t-101 -43q-59 0 -102 42q-42 43 -42 102zM385 954q0 -104 69 -173t175 -69t175 70q69 68 68 172
q0 104 -68 173q-69 69 -175 69t-175 -69t-69 -173z" />
    <glyph glyph-name="guillemotright" unicode="&#xbb;" 
d="M688 166l234 289l-234 288l82 66l287 -354l-287 -355zM260 166l234 289l-234 288l82 66l287 -354l-287 -355z" />
    <glyph glyph-name="onequarter" unicode="&#xbc;" 
d="M381 1264v-512h182v-74h-457v74h191v430l-166 -113l-43 68l186 127h107zM549 434l29 -31l-381 -417l-76 77zM705 528l-29 31l381 418l76 -78zM1221 -70h-142v-135h-82v135h-313v101q166 178 268 415l84 -26q-84 -193 -268 -416h229v139h82v-139h142v-74z" />
    <glyph glyph-name="onehalf" unicode="&#xbd;" 
d="M705 528l-29 31l381 418l76 -78zM549 434l29 -31l-381 -417l-76 77zM1157 232q0 -68 -42 -116t-118 -104l-190 -143h391v-74h-481v94l221 177q49 37 72 56q57 47 57 96q0 48 -27 73t-71 24q-107 1 -193 -118l-61 49q104 150 254 149q90 0 139 -47q49 -48 49 -116z
M381 1264v-512h182v-74h-457v74h191v430l-166 -113l-43 68l186 127h107z" />
    <glyph glyph-name="threequarters" unicode="&#xbe;" 
d="M1221 -70h-142v-135h-82v135h-313v101q166 178 268 415l84 -26q-84 -193 -268 -416h229v139h82v-139h142v-74zM705 528l-29 31l381 418l76 -78zM549 434l29 -31l-381 -417l-76 77zM119 1178v75h395v-98l-160 -135q90 -2 136 -47t47 -119q0 -123 -117 -196t-289 -95
l-14 74q338 59 338 217q0 47 -30 76q-30 28 -85 28t-115 -38l-37 53l244 205h-313z" />
    <glyph glyph-name="questiondown" unicode="&#xbf;" 
d="M801 855q0 -54 -37 -92t-91 -38t-92 38t-38 92t38 92t92 38t91 -38t37 -92zM614 588h115v-207q-205 -49 -302 -111t-97 -176q0 -115 91 -175t220 -60t214 50t93 114q-94 23 -94 94q0 39 30 67t76 27q46 0 80 -36q35 -36 35 -93q0 -135 -123 -225t-305 -90t-304 87
t-122 235q-1 148 103 229t290 128v142z" />
    <glyph glyph-name="Agrave" unicode="&#xc0;" 
d="M377 1631q0 40 22 64q23 24 58 23q61 0 94 -69l141 -297l-33 -25l-235 223q-47 41 -47 81zM469 94v-94h-449v94h127l418 1073h127l418 -1073h127v-94h-457v94h168l37 37l-106 275h-506l-107 -275l35 -37h168zM842 500l-217 563l-217 -563h434z" />
    <glyph glyph-name="Aacute" unicode="&#xc1;" 
d="M883 1630q0 -41 -49 -80l-236 -223l-33 25l144 297q29 70 92 69q35 0 59 -24t23 -64zM469 94v-94h-449v94h127l418 1073h127l418 -1073h127v-94h-457v94h168l37 37l-106 275h-506l-107 -275l35 -37h168zM842 500l-217 563l-217 -563h434z" />
    <glyph glyph-name="Acircumflex" unicode="&#xc2;" 
d="M629 1700q49 0 88 -55l203 -293l-41 -31l-250 231l-248 -231l-43 31l203 293q39 55 88 55zM469 94v-94h-449v94h127l418 1073h127l418 -1073h127v-94h-457v94h168l37 37l-106 275h-506l-107 -275l35 -37h168zM842 500l-217 563l-217 -563h434z" />
    <glyph glyph-name="Atilde" unicode="&#xc3;" 
d="M891 1581h94q0 -109 -55 -177t-144 -69q-57 0 -112 39q-56 39 -104 77t-92 38t-79 -41t-34 -107h-93q0 109 56 177t135 68q80 0 173 -78q93 -76 141 -76t81 40t33 109zM469 94v-94h-449v94h127l418 1073h127l418 -1073h127v-94h-457v94h168l37 37l-106 275h-506
l-107 -275l35 -37h168zM842 500l-217 563l-217 -563h434z" />
    <glyph glyph-name="Adieresis" unicode="&#xc4;" 
d="M417 1352q-48 0 -83 34t-35 80q0 47 35 81t83 34t82 -34q33 -34 33 -81t-33 -81q-34 -33 -82 -33zM842 1350q-49 0 -83 34t-34 81q0 48 34 82t83 34t83 -34q33 -34 33 -82t-33 -82q-34 -33 -83 -33zM469 94v-94h-449v94h127l418 1073h127l418 -1073h127v-94h-457v94h168
l37 37l-106 275h-506l-107 -275l35 -37h168zM842 500l-217 563l-217 -563h434z" />
    <glyph glyph-name="Aring" unicode="&#xc5;" 
d="M850 1528q0 -94 -64 -158t-157 -63q-94 0 -158 63q-63 64 -63 158t63 158t157 63q94 1 158 -63t64 -158zM758 1528q0 59 -36 96t-93 37t-93 -37t-36 -96t36 -96t93 -37t93 37t36 96zM469 94v-94h-449v94h127l418 1073h127l418 -1073h127v-94h-457v94h168l37 37l-106 275
h-506l-107 -275l35 -37h168zM842 500l-217 563l-217 -563h434z" />
    <glyph glyph-name="AE" unicode="&#xc6;" 
d="M332 94v-94h-309v98l444 938l-33 37h-139v94h895v-360h-96v221l-45 45h-312v-426h289v-90h-289v-463h326l45 45v230h98v-369h-708v94h94l45 45v267h-371l-131 -275l37 -37h160zM637 500v573h-53l-273 -573h326z" />
    <glyph glyph-name="Ccedilla" unicode="&#xc7;" 
d="M653 -465q-92 0 -170 41t-110 123l76 47q55 -133 197 -133t142 102q0 49 -47 78t-139 25l-70 47l50 112q-207 31 -331 199t-124 420t145 426t385 174q103 0 189 -45t135 -121l23 10v127h94v-385h-76q-49 154 -144 233t-221 79q-199 0 -309 -144t-110 -365
q0 -220 113 -366q114 -145 313 -145q233 0 380 180l66 -74q-174 -209 -446 -209h-5l-32 -77q117 0 183 -46t67 -132q0 -87 -66 -134t-158 -47z" />
    <glyph glyph-name="Egrave" unicode="&#xc8;" 
d="M410 94h563l45 45v230h96v-369h-1030v94h178l45 45v889l-45 45h-178v94h1014v-360h-97v221l-45 45h-546v-426h284l45 45v133h86v-446h-86v133l-45 45h-284v-463zM717 1352l-33 -25l-235 223q-47 41 -47 81t22 64q23 24 57 23q61 0 94 -69z" />
    <glyph glyph-name="Eacute" unicode="&#xc9;" 
d="M410 94h563l45 45v230h96v-369h-1030v94h178l45 45v889l-45 45h-178v94h1014v-360h-97v221l-45 45h-546v-426h284l45 45v133h86v-446h-86v133l-45 45h-284v-463zM891 1630q0 -41 -49 -80l-236 -223l-33 25l144 297q29 70 92 69q35 0 59 -24t23 -64z" />
    <glyph glyph-name="Ecircumflex" unicode="&#xca;" 
d="M653 1700q49 0 88 -55l203 -293l-41 -31l-250 231l-247 -231l-44 31l203 293q39 55 88 55zM410 94h563l45 45v230h96v-369h-1030v94h178l45 45v889l-45 45h-178v94h1014v-360h-97v221l-45 45h-546v-426h284l45 45v133h86v-446h-86v133l-45 45h-284v-463z" />
    <glyph glyph-name="Edieresis" unicode="&#xcb;" 
d="M410 94h563l45 45v230h96v-369h-1030v94h178l45 45v889l-45 45h-178v94h1014v-360h-97v221l-45 45h-546v-426h284l45 45v133h86v-446h-86v133l-45 45h-284v-463zM557 1466q0 -46 -34 -80t-82 -34t-83 34t-34 80q0 47 34 81q35 34 83 34t82 -34t34 -81zM866 1350
q-49 0 -83 34q-33 34 -33 81q0 48 33 82q34 34 83 34t83 -34t34 -82q0 -47 -34 -81t-83 -34z" />
    <glyph glyph-name="Igrave" unicode="&#xcc;" 
d="M377 1631q0 40 22 64q23 24 58 23q61 0 94 -69l141 -297l-33 -25l-235 223q-47 41 -47 81zM213 1073v94h831v-94h-317l-45 -45v-889l45 -45h317v-94h-831v94h317l45 45v889l-45 45h-317z" />
    <glyph glyph-name="Iacute" unicode="&#xcd;" 
d="M881 1630q0 -41 -50 -80l-235 -223l-33 25l144 297q29 70 92 69q35 0 59 -24t23 -64zM213 1073v94h831v-94h-317l-45 -45v-889l45 -45h317v-94h-831v94h317l45 45v889l-45 45h-317z" />
    <glyph glyph-name="Icircumflex" unicode="&#xce;" 
d="M629 1700q49 0 88 -55l203 -293l-41 -31l-250 231l-248 -231l-43 31l203 293q39 55 88 55zM213 1073v94h831v-94h-317l-45 -45v-889l45 -45h317v-94h-831v94h317l45 45v889l-45 45h-317z" />
    <glyph glyph-name="Idieresis" unicode="&#xcf;" 
d="M417 1352q-48 0 -83 34t-35 80q0 47 35 81t83 34t82 -34q33 -34 33 -81t-33 -81q-34 -33 -82 -33zM842 1350q-49 0 -83 34t-34 81q0 48 34 82t83 34t83 -34q33 -34 33 -82t-33 -82q-34 -33 -83 -33zM213 1073v94h831v-94h-317l-45 -45v-889l45 -45h317v-94h-831v94h317
l45 45v889l-45 45h-317z" />
    <glyph glyph-name="Eth" unicode="&#xd0;" 
d="M358 94h158q248 0 381 136t133 354t-133 353q-133 136 -381 136h-158v-411h291v-95h-291v-473zM516 0h-436v94h131l45 47v426h-178v95h178v366l-45 45h-131v94h436q299 1 462 -161t163 -422t-163 -422t-462 -162z" />
    <glyph glyph-name="Ntilde" unicode="&#xd1;" 
d="M1024 0h-111l-567 1040v-901l45 -45h123v-94h-434v94h123l45 45v889l-45 45h-123v94h315l531 -989v850l-45 45h-123v94h434v-94h-123l-45 -45v-1028zM899 1581h94q0 -109 -55 -177t-143 -69q-57 0 -113 39t-103 77q-48 38 -92 38t-79 -41t-35 -107h-92q0 109 55 177
t135 68t173 -78q93 -76 141 -76t81 40t33 109z" />
    <glyph glyph-name="Ograve" unicode="&#xd2;" 
d="M1040 584q0 219 -109 364q-111 146 -303 146t-302 -146t-109 -364q0 -218 110 -364q111 -146 303 -146t301 146t109 364zM1151 584q0 -264 -143 -438t-379 -175q-236 0 -379 174q-144 175 -144 439t144 438t379 174q236 0 379 -174t143 -438zM377 1631q0 40 22 64
q23 24 58 23q61 0 94 -69l141 -297l-33 -25l-235 223q-47 41 -47 81z" />
    <glyph glyph-name="Oacute" unicode="&#xd3;" 
d="M1040 584q0 219 -109 364q-111 146 -303 146t-302 -146t-109 -364q0 -218 110 -364q111 -146 303 -146t301 146t109 364zM1151 584q0 -264 -143 -438t-379 -175q-236 0 -379 174q-144 175 -144 439t144 438t379 174q236 0 379 -174t143 -438zM883 1630q0 -41 -49 -80
l-236 -223l-33 25l144 297q29 70 92 69q35 0 59 -24t23 -64z" />
    <glyph glyph-name="Ocircumflex" unicode="&#xd4;" 
d="M629 1700q49 0 88 -55l203 -293l-41 -31l-250 231l-248 -231l-43 31l203 293q39 55 88 55zM1040 584q0 219 -109 364q-111 146 -303 146t-302 -146t-109 -364q0 -218 110 -364q111 -146 303 -146t301 146t109 364zM1151 584q0 -264 -143 -438t-379 -175q-236 0 -379 174
q-144 175 -144 439t144 438t379 174q236 0 379 -174t143 -438z" />
    <glyph glyph-name="Otilde" unicode="&#xd5;" 
d="M1040 584q0 219 -109 364q-111 146 -303 146t-302 -146t-109 -364q0 -218 110 -364q111 -146 303 -146t301 146t109 364zM1151 584q0 -264 -143 -438t-379 -175q-236 0 -379 174q-144 175 -144 439t144 438t379 174q236 0 379 -174t143 -438zM891 1581h94
q0 -109 -55 -177t-144 -69q-57 0 -112 39q-56 39 -104 77t-92 38t-79 -41t-34 -107h-93q0 109 56 177t135 68q80 0 173 -78q93 -76 141 -76t81 40t33 109z" />
    <glyph glyph-name="Odieresis" unicode="&#xd6;" 
d="M1040 584q0 219 -109 364q-111 146 -303 146t-302 -146t-109 -364q0 -218 110 -364q111 -146 303 -146t301 146t109 364zM1151 584q0 -264 -143 -438t-379 -175q-236 0 -379 174q-144 175 -144 439t144 438t379 174q236 0 379 -174t143 -438zM417 1352q-48 0 -83 34
t-35 80q0 47 35 81t83 34t82 -34q33 -34 33 -81t-33 -81q-34 -33 -82 -33zM842 1350q-49 0 -83 34t-34 81q0 48 34 82t83 34t83 -34q33 -34 33 -82t-33 -82q-34 -33 -83 -33z" />
    <glyph glyph-name="multiply" unicode="&#xd7;" 
d="M565 555l-319 319l67 66l316 -319l315 319l68 -66l-320 -319l320 -319l-68 -66l-315 319l-316 -319l-67 66z" />
    <glyph glyph-name="Oslash" unicode="&#xd8;" 
d="M1151 581q0 -261 -143 -435t-379 -175q-166 0 -293 95l-127 -177l-74 52l133 184q-162 175 -162 449t144 448t379 174q186 0 323 -117l113 158l74 -51l-125 -172q137 -172 137 -433zM629 74q193 0 303 145t108 355q0 210 -90 348l-555 -772q103 -76 234 -76zM629 1094
q-193 0 -303 -146t-109 -368q0 -223 115 -367l559 780q-106 101 -262 101z" />
    <glyph glyph-name="Ugrave" unicode="&#xd9;" 
d="M629 -29q-174 0 -288 114t-114 288v655l-45 45h-123v94h439v-94h-123l-45 -45v-649q0 -137 85 -223t214 -86t214 86t85 223v649l-45 45h-123v94h438v-94h-123l-45 -45v-655q0 -174 -114 -288t-287 -114zM377 1631q0 40 22 64q23 24 58 23q61 0 94 -69l141 -297l-33 -25
l-235 223q-47 41 -47 81z" />
    <glyph glyph-name="Uacute" unicode="&#xda;" 
d="M629 -29q-174 0 -288 114t-114 288v655l-45 45h-123v94h439v-94h-123l-45 -45v-649q0 -137 85 -223t214 -86t214 86t85 223v649l-45 45h-123v94h438v-94h-123l-45 -45v-655q0 -174 -114 -288t-287 -114zM883 1630q0 -41 -49 -80l-236 -223l-33 25l144 297q29 70 92 69
q35 0 59 -24t23 -64z" />
    <glyph glyph-name="Ucircumflex" unicode="&#xdb;" 
d="M629 1700q49 0 88 -55l203 -293l-41 -31l-250 231l-248 -231l-43 31l203 293q39 55 88 55zM629 -29q-174 0 -288 114t-114 288v655l-45 45h-123v94h439v-94h-123l-45 -45v-649q0 -137 85 -223t214 -86t214 86t85 223v649l-45 45h-123v94h438v-94h-123l-45 -45v-655
q0 -174 -114 -288t-287 -114z" />
    <glyph glyph-name="Udieresis" unicode="&#xdc;" 
d="M629 -29q-174 0 -288 114t-114 288v655l-45 45h-123v94h439v-94h-123l-45 -45v-649q0 -137 85 -223t214 -86t214 86t85 223v649l-45 45h-123v94h438v-94h-123l-45 -45v-655q0 -174 -114 -288t-287 -114zM417 1352q-48 0 -83 34t-35 80q0 47 35 81t83 34t82 -34
q33 -34 33 -81t-33 -81q-34 -33 -82 -33zM842 1350q-49 0 -83 34t-34 81q0 48 34 82t83 34t83 -34q33 -34 33 -82t-33 -82q-34 -33 -83 -33z" />
    <glyph glyph-name="Yacute" unicode="&#xdd;" 
d="M883 1630q0 -41 -49 -80l-236 -223l-33 25l144 297q29 70 92 69q35 0 59 -24t23 -64zM967 94v-94h-676v94h239l45 45v299l-428 635h-127v94h480v-94h-168l-37 -37l340 -510l336 510l-37 37h-168v94h471v-94h-127l-428 -635v-299l45 -45h240z" />
    <glyph glyph-name="Thorn" unicode="&#xde;" 
d="M420 899h289q459 0 458 -305q0 -303 -458 -303h-287v-164l33 -33h297v-94h-668v94h190l45 45v889l-45 45h-190v94h573v-94h-204l-33 -33v-141zM422 805v-420h283q182 0 267 51t85 159t-85 159t-267 51h-283z" />
    <glyph glyph-name="germandbls" unicode="&#xdf;" 
d="M645 1284q145 0 233 -74t89 -200q-1 -88 -51 -156t-136 -82q170 -24 280 -134t110 -281t-102 -279q-101 -108 -269 -107q-129 0 -209 70t-80 176q0 70 37 113t85 43t76 -24t27 -58q0 -82 -88 -82q-12 0 -41 4q2 -72 56 -114t133 -42q131 0 201 84t71 215q0 172 -129 264
t-332 93v96q254 0 254 199q0 82 -58 133t-157 51q-141 0 -216 -104t-75 -263v-825h-297v94h160l39 39v565l-39 39h-160v94h199q4 197 104 325t285 128z" />
    <glyph glyph-name="agrave" unicode="&#xe0;" 
d="M338 1351q0 39 22 63t58 24q61 0 94 -70l141 -297l-32 -24l-236 223q-47 41 -47 81zM262 207q0 -68 51 -106t125 -38q193 0 383 201v197l-299 -72q-260 -47 -260 -182zM197 692q0 96 117 151q118 54 277 54t246 -82t87 -235v-369q0 -143 94 -143q55 0 123 75l53 -67
q-86 -104 -175 -104t-139 50q-50 52 -57 144q-72 -86 -175 -140t-222 -54t-196 60q-76 62 -76 172t86 172t264 95l317 74v37q0 227 -243 227q-147 0 -238 -51q53 -18 53 -78q1 -37 -27 -63q-28 -25 -71 -25t-71 28t-27 72z" />
    <glyph glyph-name="aacute" unicode="&#xe1;" 
d="M745 1438q35 0 59 -24t24 -64t-50 -80l-235 -223l-33 24l143 297q29 70 92 70zM262 207q0 -68 51 -106t125 -38q193 0 383 201v197l-299 -72q-260 -47 -260 -182zM197 692q0 96 117 151q118 54 277 54t246 -82t87 -235v-369q0 -143 94 -143q55 0 123 75l53 -67
q-86 -104 -175 -104t-139 50q-50 52 -57 144q-72 -86 -175 -140t-222 -54t-196 60q-76 62 -76 172t86 172t264 95l317 74v37q0 227 -243 227q-147 0 -238 -51q53 -18 53 -78q1 -37 -27 -63q-28 -25 -71 -25t-71 28t-27 72z" />
    <glyph glyph-name="acircumflex" unicode="&#xe2;" 
d="M580 1425q49 0 88 -55l202 -291l-41 -32l-249 231l-248 -231l-43 32l203 291q39 55 88 55zM262 207q0 -68 51 -106t125 -38q193 0 383 201v197l-299 -72q-260 -47 -260 -182zM197 692q0 96 117 151q118 54 277 54t246 -82t87 -235v-369q0 -143 94 -143q55 0 123 75
l53 -67q-86 -104 -175 -104t-139 50q-50 52 -57 144q-72 -86 -175 -140t-222 -54t-196 60q-76 62 -76 172t86 172t264 95l317 74v37q0 227 -243 227q-147 0 -238 -51q53 -18 53 -78q1 -37 -27 -63q-28 -25 -71 -25t-71 28t-27 72z" />
    <glyph glyph-name="atilde" unicode="&#xe3;" 
d="M844 1315h94q0 -109 -55 -177t-144 -69q-57 0 -112 39t-103 77t-93 38q-44 0 -79 -41t-35 -107h-92q-1 109 55 177t136 67q80 0 173 -77t141 -77t81 41t33 109zM262 207q0 -68 51 -106t125 -38q193 0 383 201v197l-299 -72q-260 -47 -260 -182zM197 692q0 96 117 151
q118 54 277 54t246 -82t87 -235v-369q0 -143 94 -143q55 0 123 75l53 -67q-86 -104 -175 -104t-139 50q-50 52 -57 144q-72 -86 -175 -140t-222 -54t-196 60q-76 62 -76 172t86 172t264 95l317 74v37q0 227 -243 227q-147 0 -238 -51q53 -18 53 -78q1 -37 -27 -63
q-28 -25 -71 -25t-71 28t-27 72z" />
    <glyph glyph-name="adieresis" unicode="&#xe4;" 
d="M368 1100q-48 0 -83 34t-35 80t35 81q35 34 83 34t82 -34t34 -81q0 -46 -34 -80t-82 -34zM793 1098q-49 0 -83 34t-34 82t34 81q34 34 83 34t83 -34t34 -82q0 -47 -34 -81t-83 -34zM262 207q0 -68 51 -106t125 -38q193 0 383 201v197l-299 -72q-260 -47 -260 -182z
M197 692q0 96 117 151q118 54 277 54t246 -82t87 -235v-369q0 -143 94 -143q55 0 123 75l53 -67q-86 -104 -175 -104t-139 50q-50 52 -57 144q-72 -86 -175 -140t-222 -54t-196 60q-76 62 -76 172t86 172t264 95l317 74v37q0 227 -243 227q-147 0 -238 -51q53 -18 53 -78
q1 -37 -27 -63q-28 -25 -71 -25t-71 28t-27 72z" />
    <glyph glyph-name="aring" unicode="&#xe5;" 
d="M801 1247q1 -94 -63 -157q-64 -64 -158 -64t-158 64t-64 157t64 157t158 64t158 -64t63 -157zM713 1248q0 60 -37 98t-96 38t-97 -37q-37 -39 -37 -99t37 -99t97 -39t96 39q37 39 37 99zM262 207q0 -68 51 -106t125 -38q193 0 383 201v197l-299 -72q-260 -47 -260 -182z
M197 692q0 96 117 151q118 54 277 54t246 -82t87 -235v-369q0 -143 94 -143q55 0 123 75l53 -67q-86 -104 -175 -104t-139 50q-50 52 -57 144q-72 -86 -175 -140t-222 -54t-196 60q-76 62 -76 172t86 172t264 95l317 74v37q0 227 -243 227q-147 0 -238 -51q53 -18 53 -78
q1 -37 -27 -63q-28 -25 -71 -25t-71 28t-27 72z" />
    <glyph glyph-name="ae" unicode="&#xe6;" 
d="M164 227q0 -78 51 -121t125 -43q135 0 264 107q-53 106 -59 229h-45q-336 -4 -336 -172zM884 801q-95 0 -162 -87t-79 -225l453 7v12q-12 129 -64 211t-148 82zM908 -29q-163 0 -261 133q-147 -133 -315 -133q-121 0 -199 67t-78 187q0 258 457 262h35q8 111 55 207
q-51 115 -188 115q-94 0 -178 -49q22 -6 38 -28t16 -54t-26 -56t-68 -24t-68 27t-26 71q0 84 96 142t216 59q164 0 241 -119q99 119 239 119t224 -139t84 -346l-561 -11q8 -143 79 -238q72 -95 190 -95t225 131l59 -66q-123 -162 -286 -162z" />
    <glyph glyph-name="ccedilla" unicode="&#xe7;" 
d="M643 -465q-92 0 -170 41t-111 123l76 47q56 -133 198 -133t142 102q0 49 -47 78t-139 25l-70 47l49 112q-179 25 -293 152t-114 315t144 320q144 133 334 133t302 -81q111 -81 111 -202q0 -51 -32 -85q-32 -33 -77 -33t-75 28q-29 28 -29 67q0 37 24 61t56 24
q-14 53 -86 90t-179 37q-157 1 -271 -105t-114 -262t104 -262t292 -106q186 0 333 141l60 -76q-166 -162 -410 -162h-2l-33 -77q117 0 184 -46q66 -46 66 -132q0 -87 -66 -134t-157 -47z" />
    <glyph glyph-name="egrave" unicode="&#xe8;" 
d="M395 1351q0 39 23 63t57 24q61 0 94 -70l142 -297l-33 -24l-236 223q-47 41 -47 81zM657 -29q-223 0 -358 132t-135 330t134 331t340 133t326 -139t119 -344h-815q8 -150 110 -249t263 -99q201 0 346 139l55 -72q-162 -162 -385 -162zM633 803q-137 0 -237 -85t-124 -220
h695q-29 145 -113 225t-221 80z" />
    <glyph glyph-name="eacute" unicode="&#xe9;" 
d="M657 -29q-223 0 -358 132t-135 330t134 331t340 133t326 -139t119 -344h-815q8 -150 110 -249t263 -99q201 0 346 139l55 -72q-162 -162 -385 -162zM633 803q-137 0 -237 -85t-124 -220h695q-29 145 -113 225t-221 80zM805 1438q35 0 59 -24t23 -64q0 -40 -49 -80
l-236 -223l-33 24l144 297q29 70 92 70z" />
    <glyph glyph-name="ecircumflex" unicode="&#xea;" 
d="M657 -29q-223 0 -358 132t-135 330t134 331t340 133t326 -139t119 -344h-815q8 -150 110 -249t263 -99q201 0 346 139l55 -72q-162 -162 -385 -162zM633 803q-137 0 -237 -85t-124 -220h695q-29 145 -113 225t-221 80zM639 1425q49 0 88 -55l203 -291l-41 -32l-250 231
l-248 -231l-43 32l203 291q39 55 88 55z" />
    <glyph glyph-name="edieresis" unicode="&#xeb;" 
d="M657 -29q-223 0 -358 132t-135 330t134 331t340 133t326 -139t119 -344h-815q8 -150 110 -249t263 -99q201 0 346 139l55 -72q-162 -162 -385 -162zM633 803q-137 0 -237 -85t-124 -220h695q-29 145 -113 225t-221 80zM543 1214q0 -46 -34 -80t-82 -34t-83 34t-35 80
t35 81q35 34 83 34t82 -34t34 -81zM852 1098q-49 0 -83 34t-34 82t34 81q34 34 83 34t83 -34t34 -82q0 -47 -34 -81t-83 -34z" />
    <glyph glyph-name="igrave" unicode="&#xec;" 
d="M481 1438q61 0 94 -70l142 -297l-33 -24l-235 223q-47 41 -47 81q0 39 22 63q23 24 57 24zM1094 94v-94h-875v94h352l45 45v590l-45 45h-352v94h496v-729l45 -45h334z" />
    <glyph glyph-name="iacute" unicode="&#xed;" 
d="M1094 94v-94h-875v94h352l45 45v590l-45 45h-352v94h496v-729l45 -45h334zM809 1438q35 0 59 -24t23 -64q0 -40 -49 -80l-236 -223l-33 24l144 297q29 70 92 70z" />
    <glyph glyph-name="icircumflex" unicode="&#xee;" 
d="M1094 94v-94h-875v94h352l45 45v590l-45 45h-352v94h496v-729l45 -45h334zM643 1425q49 0 88 -55l203 -291l-41 -32l-250 231l-248 -231l-43 32l203 291q39 55 88 55z" />
    <glyph glyph-name="idieresis" unicode="&#xef;" 
d="M1094 94v-94h-875v94h352l45 45v590l-45 45h-352v94h496v-729l45 -45h334zM547 1214q0 -46 -34 -80t-82 -34t-83 34t-35 80t35 81q35 34 83 34t82 -34t34 -81zM856 1098q-49 0 -83 34t-34 82t34 81q34 34 83 34t83 -34t34 -82q0 -47 -34 -81t-83 -34z" />
    <glyph glyph-name="eth" unicode="&#xf0;" 
d="M991 410q0 145 -102 242q-102 98 -260 98t-260 -98q-103 -98 -103 -242t102 -242t261 -98q158 0 260 98t102 242zM630 -29q-204 0 -339 126q-135 127 -135 313t135 312t339 126t326 -146q-84 219 -276 351l-231 -111l-35 66l190 90q-121 66 -287 98l23 84
q207 -33 369 -131l241 117l35 -68l-205 -98q156 -117 238 -290t82 -377t-133 -333t-337 -129z" />
    <glyph glyph-name="ntilde" unicode="&#xf1;" 
d="M909 1315h95q0 -109 -56 -177t-143 -69q-57 0 -113 39t-103 77q-48 38 -92 38t-79 -41t-35 -107h-92q0 109 55 177q56 68 136 67q80 0 172 -77t142 -77q48 0 81 41q32 41 32 109zM561 94v-94h-469v94h141l46 45v590l-46 45h-141v94h285v-166q45 82 133 138t212 57
q124 0 210 -83q88 -83 88 -245v-430l45 -45h139v-94h-469v94h142l45 45v404q0 258 -224 258q-204 0 -321 -221v-441l45 -45h139z" />
    <glyph glyph-name="ograve" unicode="&#xf2;" 
d="M385 1351q0 39 23 63t57 24q61 0 94 -70l141 -297l-32 -24l-236 223q-47 41 -47 81zM991 434q0 156 -102 261t-260 105t-260 -104q-103 -106 -103 -262t102 -261t261 -105q158 0 260 105t102 261zM158 434q0 197 134 330t337 133t337 -133t134 -330t-134 -330t-337 -133
t-337 133t-134 330z" />
    <glyph glyph-name="oacute" unicode="&#xf3;" 
d="M991 434q0 156 -102 261t-260 105t-260 -104q-103 -106 -103 -262t102 -261t261 -105q158 0 260 105t102 261zM158 434q0 197 134 330t337 133t337 -133t134 -330t-134 -330t-337 -133t-337 133t-134 330zM795 1438q35 0 59 -24t23 -64q0 -40 -50 -80l-235 -223l-33 24
l143 297q29 70 93 70z" />
    <glyph glyph-name="ocircumflex" unicode="&#xf4;" 
d="M991 434q0 156 -102 261t-260 105t-260 -104q-103 -106 -103 -262t102 -261t261 -105q158 0 260 105t102 261zM158 434q0 197 134 330t337 133t337 -133t134 -330t-134 -330t-337 -133t-337 133t-134 330zM629 1425q49 0 88 -55l203 -291l-41 -32l-250 231l-248 -231
l-43 32l203 291q39 55 88 55z" />
    <glyph glyph-name="otilde" unicode="&#xf5;" 
d="M907 1315h94q0 -109 -55 -177t-143 -69q-57 0 -113 39t-103 77q-48 38 -92 38t-79 -41t-35 -107h-92q0 109 55 177t135 67q80 0 173 -77q94 -77 142 -77t80 41t33 109zM991 434q0 156 -102 261t-260 105t-260 -104q-103 -106 -103 -262t102 -261t261 -105q158 0 260 105
t102 261zM158 434q0 197 134 330t337 133t337 -133t134 -330t-134 -330t-337 -133t-337 133t-134 330z" />
    <glyph glyph-name="odieresis" unicode="&#xf6;" 
d="M991 434q0 156 -102 261t-260 105t-260 -104q-103 -106 -103 -262t102 -261t261 -105q158 0 260 105t102 261zM158 434q0 197 134 330t337 133t337 -133t134 -330t-134 -330t-337 -133t-337 133t-134 330zM417 1100q-48 0 -83 34t-35 80t35 81q35 34 83 34t82 -34
q33 -34 33 -81q0 -46 -34 -80t-81 -34zM842 1098q-49 0 -83 34t-34 82t34 81q34 34 83 34t83 -34q33 -34 33 -82q0 -47 -34 -81t-82 -34z" />
    <glyph glyph-name="divide" unicode="&#xf7;" 
d="M723 180q0 -38 -28 -66q-29 -28 -67 -28t-64 28t-27 66q0 39 26 67q27 27 67 27t66 -28t27 -66zM537 927q1 39 27 67t65 28t67 -28t27 -68q0 -40 -28 -67q-29 -28 -67 -28t-65 28q-26 28 -26 68zM180 506v94h899v-94h-899z" />
    <glyph glyph-name="oslash" unicode="&#xf8;" 
d="M1100 438q0 -201 -134 -334t-337 -133q-137 0 -246 64l-125 -158l-70 53l123 156q-153 133 -153 339t134 339t337 133q143 0 260 -72l123 158l69 -55l-123 -158q142 -131 142 -332zM629 66q158 0 261 106t103 260t-98 258l-453 -577q83 -47 187 -47zM629 803
q-158 -1 -261 -107q-104 -106 -104 -264t109 -266l454 582q-87 55 -198 55z" />
    <glyph glyph-name="ugrave" unicode="&#xf9;" 
d="M354 1351q0 39 23 63t57 24q61 0 94 -70l142 -297l-33 -24l-236 223q-47 41 -47 81zM694 868h285v-729l45 -45h139v-94h-282v166q-45 -82 -133 -138t-213 -56t-212 82q-87 83 -87 245v430l-46 45h-139v94h283v-542q0 -258 223 -258q207 0 324 221v440l-45 45h-142v94z
" />
    <glyph glyph-name="uacute" unicode="&#xfa;" 
d="M694 868h285v-729l45 -45h139v-94h-282v166q-45 -82 -133 -138t-213 -56t-212 82q-87 83 -87 245v430l-46 45h-139v94h283v-542q0 -258 223 -258q207 0 324 221v440l-45 45h-142v94zM762 1438q34 0 58 -24t24 -64t-49 -80l-236 -223l-33 24l144 297q29 70 92 70z" />
    <glyph glyph-name="ucircumflex" unicode="&#xfb;" 
d="M694 868h285v-729l45 -45h139v-94h-282v166q-45 -82 -133 -138t-213 -56t-212 82q-87 83 -87 245v430l-46 45h-139v94h283v-542q0 -258 223 -258q207 0 324 221v440l-45 45h-142v94zM596 1425q49 0 88 -55l203 -291l-41 -32l-250 231l-248 -231l-43 32l203 291
q39 55 88 55z" />
    <glyph glyph-name="udieresis" unicode="&#xfc;" 
d="M694 868h285v-729l45 -45h139v-94h-282v166q-45 -82 -133 -138t-213 -56t-212 82q-87 83 -87 245v430l-46 45h-139v94h283v-542q0 -258 223 -258q207 0 324 221v440l-45 45h-142v94zM500 1214q0 -46 -34 -80t-82 -34t-83 34t-35 80t35 81q35 34 83 34t82 -34t34 -81z
M809 1098q-49 0 -83 34t-34 82t34 81q34 34 83 34t83 -34t34 -82q0 -47 -34 -81t-83 -34z" />
    <glyph glyph-name="yacute" unicode="&#xfd;" 
d="M817 1438q35 0 59 -24t24 -64t-50 -80l-236 -223l-32 24l143 297q29 70 92 70zM86 -221q0 53 33 89t78 36t75 -27t31 -66q-1 -39 -25 -63t-63 -27q18 -47 92 -47t126 69t151 261l-400 770h-114v94h438v-94h-160l-29 -35l320 -635l319 635l-28 35h-160v94h430v-94h-115
l-419 -813q-104 -203 -180 -289t-172 -86t-162 54t-66 139z" />
    <glyph glyph-name="thorn" unicode="&#xfe;" 
d="M618 -291v-94h-528v94h127l33 33v1386l-33 33h-141v94h272v-567q52 94 144 152t210 57q186 0 310 -133t125 -330q0 -197 -124 -330t-311 -133q-119 -1 -211 57t-143 152v-438l33 -33h237zM1030 434q0 156 -93 261t-241 106q-239 0 -348 -250v-234q109 -250 348 -249
q147 0 241 105q93 105 93 261z" />
    <glyph glyph-name="ydieresis" unicode="&#xff;" 
d="M555 1214q0 -46 -34 -80t-82 -34t-83 34q-34 34 -34 80t34 81q35 34 83 34t82 -34t34 -81zM864 1098q-49 0 -83 34q-33 34 -33 82t33 81q34 34 83 34t83 -34t34 -82q0 -47 -34 -81t-83 -34zM86 -221q0 53 33 89t78 36t75 -27t31 -66q-1 -39 -25 -63t-63 -27
q18 -47 92 -47t126 69t151 261l-400 770h-114v94h438v-94h-160l-29 -35l320 -635l319 635l-28 35h-160v94h430v-94h-115l-419 -813q-104 -203 -180 -289t-172 -86t-162 54t-66 139z" />
    <glyph glyph-name="Amacron" unicode="&#x100;" 
d="M322 1481h614v-99h-614v99zM469 94v-94h-449v94h127l418 1073h127l418 -1073h127v-94h-457v94h168l37 37l-106 275h-506l-107 -275l35 -37h168zM842 500l-217 563l-217 -563h434z" />
    <glyph glyph-name="amacron" unicode="&#x101;" 
d="M272 1200h615v-98h-615v98zM262 207q0 -68 51 -106t125 -38q193 0 383 201v197l-299 -72q-260 -47 -260 -182zM197 692q0 96 117 151q118 54 277 54t246 -82t87 -235v-369q0 -143 94 -143q55 0 123 75l53 -67q-86 -104 -175 -104t-139 50q-50 52 -57 144
q-72 -86 -175 -140t-222 -54t-196 60q-76 62 -76 172t86 172t264 95l317 74v37q0 227 -243 227q-147 0 -238 -51q53 -18 53 -78q1 -37 -27 -63q-28 -25 -71 -25t-71 28t-27 72z" />
    <glyph glyph-name="Abreve" unicode="&#x102;" 
d="M629 1432q91 0 159 59t86 160l74 -19q-26 -150 -108 -234t-211 -83q-129 0 -212 84t-108 233l74 19q18 -99 87 -159t159 -60zM469 94v-94h-449v94h127l418 1073h127l418 -1073h127v-94h-457v94h168l37 37l-106 275h-506l-107 -275l35 -37h168zM842 500l-217 563
l-217 -563h434z" />
    <glyph glyph-name="abreve" unicode="&#x103;" 
d="M580 1159q90 -1 158 59t87 160l74 -18q-25 -150 -107 -234t-212 -84q-129 0 -212 84t-108 234l74 18q18 -100 87 -160t159 -59zM262 207q0 -68 51 -106t125 -38q193 0 383 201v197l-299 -72q-260 -47 -260 -182zM197 692q0 96 117 151q118 54 277 54t246 -82t87 -235
v-369q0 -143 94 -143q55 0 123 75l53 -67q-86 -104 -175 -104t-139 50q-50 52 -57 144q-72 -86 -175 -140t-222 -54t-196 60q-76 62 -76 172t86 172t264 95l317 74v37q0 227 -243 227q-147 0 -238 -51q53 -18 53 -78q1 -37 -27 -63q-28 -25 -71 -25t-71 28t-27 72z" />
    <glyph glyph-name="Aogonek" unicode="&#x104;" 
d="M739 -471q-80 0 -123 44t-43 112q1 67 49 137t160 178h-2v94h168l37 37l-106 275h-506l-107 -275l35 -37h168v-94h-449v94h127l418 1073h127l418 -1073h127v-94h-338q-133 -131 -182 -191q-49 -59 -49 -105t22 -68t55 -21q86 0 181 100l49 -69q-113 -117 -236 -117z
M842 500l-217 563l-217 -563h434z" />
    <glyph glyph-name="aogonek" unicode="&#x105;" 
d="M262 207q0 -68 51 -106t125 -38q193 0 383 201v197l-299 -72q-260 -47 -260 -182zM961 -471q-80 0 -123 44q-43 43 -43 109t44 133t142 165q-70 4 -112 52t-46 134q-72 -86 -175 -140t-222 -54t-196 60q-76 62 -76 172t86 172t264 95l317 74v37q0 227 -243 227
q-147 0 -238 -51q53 -18 53 -78q1 -37 -27 -63q-28 -25 -71 -25t-71 28t-27 72q0 96 117 151q118 54 277 54t246 -82t87 -235v-369q0 -143 94 -143q55 0 123 75l53 -67q-30 -33 -96 -96q-66 -62 -104 -102t-70 -91t-33 -90q0 -82 78 -82q84 0 178 100l49 -69
q-108 -117 -235 -117z" />
    <glyph glyph-name="Cacute" unicode="&#x106;" 
d="M924 1630q0 -41 -50 -80l-235 -223l-33 25l144 297q29 70 92 69q34 0 58 -24t24 -64zM679 -29q-257 0 -405 174q-147 175 -147 439t145 438t385 174q103 0 189 -45t135 -121l23 10v127h94v-385h-76q-49 154 -144 233t-221 79q-199 0 -309 -144t-110 -365q0 -220 113 -366
q114 -145 313 -145q233 0 380 180l66 -74q-174 -209 -431 -209z" />
    <glyph glyph-name="cacute" unicode="&#x107;" 
d="M842 591q0 37 24 61t56 24q-14 53 -86 90t-179 37q-157 1 -271 -105t-114 -262t104 -262t292 -106q186 0 333 141l60 -76q-165 -162 -393 -162t-366 132t-138 330t144 331t334 133t302 -81q111 -81 111 -202q0 -51 -32 -85q-32 -33 -77 -33t-75 28q-29 29 -29 67z
M831 1438q35 0 59 -24t24 -64t-50 -80l-235 -223l-33 24l143 297q29 70 92 70z" />
    <glyph glyph-name="Ccircumflex" unicode="&#x108;" 
d="M670 1700q49 0 88 -55l203 -293l-41 -31l-250 231l-248 -231l-43 31l203 293q39 55 88 55zM679 -29q-257 0 -405 174q-147 175 -147 439t145 438t385 174q103 0 189 -45t135 -121l23 10v127h94v-385h-76q-49 154 -144 233t-221 79q-199 0 -309 -144t-110 -365
q0 -220 113 -366q114 -145 313 -145q233 0 380 180l66 -74q-174 -209 -431 -209z" />
    <glyph glyph-name="ccircumflex" unicode="&#x109;" 
d="M842 591q0 37 24 61t56 24q-14 53 -86 90t-179 37q-157 1 -271 -105t-114 -262t104 -262t292 -106q186 0 333 141l60 -76q-165 -162 -393 -162t-366 132t-138 330t144 331t334 133t302 -81q111 -81 111 -202q0 -51 -32 -85q-32 -33 -77 -33t-75 28q-29 29 -29 67z
M666 1425q49 0 88 -55l202 -291l-41 -32l-249 231l-248 -231l-43 32l203 291q39 55 88 55z" />
    <glyph glyph-name="Cdotaccent" unicode="&#x10a;" 
d="M679 -29q-257 0 -405 174q-147 175 -147 439t145 438t385 174q103 0 189 -45t135 -121l23 10v127h94v-385h-76q-49 154 -144 233t-221 79q-199 0 -309 -144t-110 -365q0 -220 113 -366q114 -145 313 -145q233 0 380 180l66 -74q-174 -209 -431 -209zM671 1346
q-50 0 -84 34t-34 83q0 50 34 84t84 34t84 -34q33 -34 33 -84t-33 -84q-34 -33 -84 -33z" />
    <glyph glyph-name="cdotaccent" unicode="&#x10b;" 
d="M667 1094q-50 0 -84 34t-34 83q0 50 34 84t84 34t84 -34q33 -34 33 -84t-33 -84q-34 -33 -84 -33zM842 591q0 37 24 61t56 24q-14 53 -86 90t-179 37q-157 1 -271 -105t-114 -262t104 -262t292 -106q186 0 333 141l60 -76q-165 -162 -393 -162t-366 132t-138 330t144 331
t334 133t302 -81q111 -81 111 -202q0 -51 -32 -85q-32 -33 -77 -33t-75 28q-29 29 -29 67z" />
    <glyph glyph-name="Ccaron" unicode="&#x10c;" 
d="M670 1327q-53 0 -88 55l-203 291l43 33l248 -233l250 233l41 -33l-203 -291q-35 -55 -88 -55zM679 -29q-257 0 -405 174q-147 175 -147 439t145 438t385 174q103 0 189 -45t135 -121l23 10v127h94v-385h-76q-49 154 -144 233t-221 79q-199 0 -309 -144t-110 -365
q0 -220 113 -366q114 -145 313 -145q233 0 380 180l66 -74q-174 -209 -431 -209z" />
    <glyph glyph-name="ccaron" unicode="&#x10d;" 
d="M842 591q0 37 24 61t56 24q-14 53 -86 90t-179 37q-157 1 -271 -105t-114 -262t104 -262t292 -106q186 0 333 141l60 -76q-165 -162 -393 -162t-366 132t-138 330t144 331t334 133t302 -81q111 -81 111 -202q0 -51 -32 -85q-32 -33 -77 -33t-75 28q-29 29 -29 67z
M666 1047q-53 0 -88 55l-203 291l43 32l248 -233l249 233l41 -32l-202 -291q-35 -55 -88 -55z" />
    <glyph glyph-name="Dcaron" unicode="&#x10e;" 
d="M516 0h-436v94h131l45 47v887l-45 45h-131v94h436q299 1 462 -161t163 -422t-163 -422t-462 -162zM358 94h158q248 0 381 136t133 354t-133 353q-133 136 -381 136h-158v-979zM582 1327q-53 0 -88 55l-203 291l43 33l248 -233l249 233l41 -33l-202 -291q-35 -55 -88 -55z
" />
    <glyph glyph-name="dcaron" unicode="&#x10f;" 
d="M639 1255h369v-1128l32 -33h127v-94h-258v180q-51 -96 -144 -153t-210 -58q-186 0 -310 133t-124 330t124 330t310 133q119 0 211 -57t143 -152v442l-32 33h-238v94zM561 799q-147 -1 -240 -105t-93 -261t92 -262q94 -105 241 -105q237 -1 348 249v236q-111 248 -348 248
zM1333 1464q33 0 57 -22t24 -60q0 -37 -38 -79l-227 -254l-37 20l127 315q27 80 94 80z" />
    <glyph glyph-name="Dcroat" unicode="&#x110;" 
d="M358 94h158q248 0 381 136t133 354t-133 353q-133 136 -381 136h-158v-411h291v-95h-291v-473zM516 0h-436v94h131l45 47v426h-178v95h178v366l-45 45h-131v94h436q299 1 462 -161t163 -422t-163 -422t-462 -162z" />
    <glyph glyph-name="dcroat" unicode="&#x111;" 
d="M123 400q0 182 123 306t309 123q119 0 211 -53t143 -141v321h-391v82h391v111l-26 27h-244v79h369v-217h161v-82h-161v-829l32 -33h127v-94h-258v164q-51 -88 -144 -141t-210 -54q-186 0 -309 124t-123 307zM561 735q-150 0 -242 -95q-92 -96 -92 -240q-1 -144 93 -239
t241 -95q239 0 348 229v211q-109 229 -348 229z" />
    <glyph glyph-name="Emacron" unicode="&#x112;" 
d="M410 94h563l45 45v230h96v-369h-1030v94h178l45 45v889l-45 45h-178v94h1014v-360h-97v221l-45 45h-546v-426h284l45 45v133h86v-446h-86v133l-45 45h-284v-463zM346 1481h615v-99h-615v99z" />
    <glyph glyph-name="emacron" unicode="&#x113;" 
d="M332 1200h614v-98h-614v98zM657 -29q-223 0 -358 132t-135 330t134 331t340 133t326 -139t119 -344h-815q8 -150 110 -249t263 -99q201 0 346 139l55 -72q-162 -162 -385 -162zM633 803q-137 0 -237 -85t-124 -220h695q-29 145 -113 225t-221 80z" />
    <glyph glyph-name="Ebreve" unicode="&#x114;" 
d="M410 94h563l45 45v230h96v-369h-1030v94h178l45 45v889l-45 45h-178v94h1014v-360h-97v221l-45 45h-546v-426h284l45 45v133h86v-446h-86v133l-45 45h-284v-463zM653 1432q90 0 159 59t87 160l74 -19q-25 -150 -108 -234t-212 -83q-129 0 -212 84t-107 233l74 19
q18 -99 86 -159t159 -60z" />
    <glyph glyph-name="ebreve" unicode="&#x115;" 
d="M639 1159q90 -1 159 59t87 160l73 -18q-26 -150 -108 -234t-211 -84t-212 84t-108 234l74 18q18 -100 87 -160t159 -59zM657 -29q-223 0 -358 132t-135 330t134 331t340 133t326 -139t119 -344h-815q8 -150 110 -249t263 -99q201 0 346 139l55 -72q-162 -162 -385 -162z
M633 803q-137 0 -237 -85t-124 -220h695q-29 145 -113 225t-221 80z" />
    <glyph glyph-name="Edotaccent" unicode="&#x116;" 
d="M410 94h563l45 45v230h96v-369h-1030v94h178l45 45v889l-45 45h-178v94h1014v-360h-97v221l-45 45h-546v-426h284l45 45v133h86v-446h-86v133l-45 45h-284v-463zM770 1463q0 -49 -34 -83t-84 -34t-84 34t-34 83q0 50 34 84t84 34t84 -34t34 -84z" />
    <glyph glyph-name="edotaccent" unicode="&#x117;" 
d="M758 1211q0 -49 -34 -83t-84 -34t-84 34t-34 83q0 50 34 84t84 34t84 -34t34 -84zM657 -29q-223 0 -358 132t-135 330t134 331t340 133t326 -139t119 -344h-815q8 -150 110 -249t263 -99q201 0 346 139l55 -72q-162 -162 -385 -162zM633 803q-137 0 -237 -85t-124 -220
h695q-29 145 -113 225t-221 80z" />
    <glyph glyph-name="Eogonek" unicode="&#x118;" 
d="M754 -471q-80 0 -123 44t-43 112q0 67 48 137t161 178h-713v94h178l45 45v889l-45 45h-178v94h1014v-360h-97v221l-45 45h-546v-426h284l45 45v133h86v-446h-86v133l-45 45h-284v-463h563l45 45v230h96v-369h-201q-133 -131 -182 -191q-49 -59 -49 -105t22 -68t56 -21
q86 0 180 100l49 -69q-113 -117 -235 -117z" />
    <glyph glyph-name="eogonek" unicode="&#x119;" 
d="M727 -471q-80 0 -123 44t-43 114q0 141 207 303q-63 -18 -127 -19q-207 0 -342 132t-135 330t134 331t340 133t326 -139t119 -344h-813q6 -148 110 -248t261 -100q201 0 346 139l55 -72q-141 -115 -203 -170q-63 -55 -123 -132t-60 -125t21 -70q22 -22 56 -21
q86 0 180 100l50 -69q-113 -117 -236 -117zM633 803q-137 0 -237 -86t-122 -219h693q-29 145 -113 225t-221 80z" />
    <glyph glyph-name="Ecaron" unicode="&#x11a;" 
d="M410 94h563l45 45v230h96v-369h-1030v94h178l45 45v889l-45 45h-178v94h1014v-360h-97v221l-45 45h-546v-426h284l45 45v133h86v-446h-86v133l-45 45h-284v-463zM653 1327q-53 0 -88 55l-203 291l44 33l247 -233l250 233l41 -33l-203 -291q-35 -55 -88 -55z" />
    <glyph glyph-name="ecaron" unicode="&#x11b;" 
d="M657 -29q-223 0 -358 132t-135 330t134 331t340 133t326 -139t119 -344h-815q8 -150 110 -249t263 -99q201 0 346 139l55 -72q-162 -162 -385 -162zM633 803q-137 0 -237 -85t-124 -220h695q-29 145 -113 225t-221 80zM639 1047q-53 0 -88 55l-203 291l43 32l248 -233
l250 233l41 -32l-203 -291q-35 -55 -88 -55z" />
    <glyph glyph-name="Gcircumflex" unicode="&#x11c;" 
d="M637 1700q49 0 88 -55l203 -293l-41 -31l-250 231l-248 -231l-43 31l203 293q39 55 88 55zM631 1094q-197 0 -309 -144t-111 -366q0 -222 110 -366t302 -144t342 209v141l-39 41h-160v94h424v-94h-86l-41 -43v-422h-98v131l-23 8q-57 -82 -147 -125t-181 -43
q-231 0 -372 174q-142 175 -142 439t146 438t383 174q207 0 313 -166l23 10v127h96v-372h-80q-102 299 -350 299z" />
    <glyph glyph-name="gcircumflex" unicode="&#x11d;" 
d="M821 33h-506q-111 -66 -111 -156t114 -143t297 -53t297 59t114 149q0 144 -205 144zM1128 -114q0 -124 -143 -212t-371 -88t-370 77t-142 203t140 216q-70 51 -70 141q0 57 37 105t96 71q-78 84 -78 205q1 121 99 207t238 86t224 -51q80 168 238 168q78 0 134 -45
t56 -103t-27 -87q-28 -29 -68 -29q-41 0 -67 26t-26 69q0 42 43 64q-23 18 -57 19q-100 0 -160 -133q84 -80 84 -204t-99 -210t-237 -86t-231 53q-100 -45 -101 -115q0 -43 30 -71t87 -29h430q145 0 229 -61q82 -62 82 -186zM831 596q0 88 -69 147q-70 59 -180 59t-181 -58
q-69 -60 -69 -148t69 -149q70 -60 181 -60q111 1 180 61t69 148zM623 1438q49 0 88 -56l202 -290l-41 -33l-249 231l-248 -231l-43 33l203 290q39 56 88 56z" />
    <glyph glyph-name="Gbreve" unicode="&#x11e;" 
d="M631 1094q-197 0 -309 -144t-111 -366q0 -222 110 -366t302 -144t342 209v141l-39 41h-160v94h424v-94h-86l-41 -43v-422h-98v131l-23 8q-57 -82 -147 -125t-181 -43q-231 0 -372 174q-142 175 -142 439t146 438t383 174q207 0 313 -166l23 10v127h96v-372h-80
q-102 299 -350 299zM637 1432q90 0 159 59t87 160l73 -19q-26 -150 -108 -234t-211 -83q-129 0 -212 84t-108 233l74 19q18 -99 87 -159t159 -60z" />
    <glyph glyph-name="gbreve" unicode="&#x11f;" 
d="M610 1165q90 -1 159 59t87 160l74 -18q-25 -150 -108 -234t-212 -83q-129 0 -212 84t-107 233l74 18q19 -100 87 -160t158 -59zM821 33h-506q-111 -66 -111 -156t114 -143t297 -53t297 59t114 149q0 144 -205 144zM1128 -114q0 -124 -143 -212t-371 -88t-370 77t-142 203
t140 216q-70 51 -70 141q0 57 37 105t96 71q-78 84 -78 205q1 121 99 207t238 86t224 -51q80 168 238 168q78 0 134 -45t56 -103t-27 -87q-28 -29 -68 -29q-41 0 -67 26t-26 69q0 42 43 64q-23 18 -57 19q-100 0 -160 -133q84 -80 84 -204t-99 -210t-237 -86t-231 53
q-100 -45 -101 -115q0 -43 30 -71t87 -29h430q145 0 229 -61q82 -62 82 -186zM831 596q0 88 -69 147q-70 59 -180 59t-181 -58q-69 -60 -69 -148t69 -149q70 -60 181 -60q111 1 180 61t69 148z" />
    <glyph glyph-name="Gdotaccent" unicode="&#x120;" 
d="M631 1094q-197 0 -309 -144t-111 -366q0 -222 110 -366t302 -144t342 209v141l-39 41h-160v94h424v-94h-86l-41 -43v-422h-98v131l-23 8q-57 -82 -147 -125t-181 -43q-231 0 -372 174q-142 175 -142 439t146 438t383 174q207 0 313 -166l23 10v127h96v-372h-80
q-102 299 -350 299zM756 1463q0 -49 -34 -83t-84 -34t-84 34t-34 83q0 50 34 84t84 34t84 -34t34 -84z" />
    <glyph glyph-name="gdotaccent" unicode="&#x121;" 
d="M628 1094q-50 0 -84 34t-34 83q0 50 34 84t84 34t84 -34t34 -84t-34 -84q-34 -33 -84 -33zM821 33h-506q-111 -66 -111 -156t114 -143t297 -53t297 59t114 149q0 144 -205 144zM1128 -114q0 -124 -143 -212t-371 -88t-370 77t-142 203t140 216q-70 51 -70 141
q0 57 37 105t96 71q-78 84 -78 205q1 121 99 207t238 86t224 -51q80 168 238 168q78 0 134 -45t56 -103t-27 -87q-28 -29 -68 -29q-41 0 -67 26t-26 69q0 42 43 64q-23 18 -57 19q-100 0 -160 -133q84 -80 84 -204t-99 -210t-237 -86t-231 53q-100 -45 -101 -115
q0 -43 30 -71t87 -29h430q145 0 229 -61q82 -62 82 -186zM831 596q0 88 -69 147q-70 59 -180 59t-181 -58q-69 -60 -69 -148t69 -149q70 -60 181 -60q111 1 180 61t69 148z" />
    <glyph glyph-name="Gcommaaccent" unicode="&#x122;" 
d="M631 1094q-197 0 -309 -144t-111 -366q0 -222 110 -366t302 -144t342 209v141l-39 41h-160v94h424v-94h-86l-41 -43v-422h-98v131l-23 8q-57 -82 -147 -125t-181 -43q-231 0 -372 174q-142 175 -142 439t146 438t383 174q207 0 313 -166l23 10v127h96v-372h-80
q-102 299 -350 299zM524 -255q0 42 33 75t79 33t79 -34t33 -79t-33 -88l-191 -238l-47 33l127 193q-36 8 -58 36t-22 69z" />
    <glyph glyph-name="gcommaaccent" unicode="&#x123;" 
d="M821 33h-506q-111 -66 -111 -156t114 -143t297 -53t297 59t114 149q0 144 -205 144zM1128 -114q0 -124 -143 -212t-371 -88t-370 77t-142 203t140 216q-70 51 -70 141q0 57 37 105t96 71q-78 84 -78 205q1 121 99 207t238 86t224 -51q80 168 238 168q78 0 134 -45
t56 -103t-27 -87q-28 -29 -68 -29q-41 0 -67 26t-26 69q0 42 43 64q-23 18 -57 19q-100 0 -160 -133q84 -80 84 -204t-99 -210t-237 -86t-231 53q-100 -45 -101 -115q0 -43 30 -71t87 -29h430q145 0 229 -61q82 -62 82 -186zM831 596q0 88 -69 147q-70 59 -180 59t-181 -58
q-69 -60 -69 -148t69 -149q70 -60 181 -60q111 1 180 61t69 148zM727 1185q0 -42 -33 -75t-79 -33q-47 0 -79 34t-32 81t33 86l188 238l47 -33l-127 -193q35 -8 59 -36t23 -69z" />
    <glyph glyph-name="Hcircumflex" unicode="&#x124;" 
d="M629 1700q49 0 88 -55l203 -293l-41 -31l-250 231l-248 -231l-43 31l203 293q39 55 88 55zM739 1073v94h439v-94h-123l-45 -45v-889l45 -45h123v-94h-439v94h123l45 45v422h-557v-422l45 -45h123v-94h-438v94h123l45 45v889l-45 45h-123v94h438v-94h-123l-45 -45v-373
h557v373l-45 45h-123z" />
    <glyph glyph-name="hcircumflex" unicode="&#x125;" 
d="M647 1741q49 0 88 -55l203 -293l-41 -31l-250 231l-248 -231l-43 31l203 293q39 55 88 55zM561 94v-94h-469v94h141l46 45v977l-46 45h-141v94h285v-553q45 82 133 138t212 57q124 0 210 -83q88 -83 88 -245v-430l45 -45h139v-94h-469v94h142l45 45v404q0 258 -224 258
q-204 0 -321 -221v-441l45 -45h139z" />
    <glyph glyph-name="Hbar" unicode="&#x126;" 
d="M518 94v-94h-438v94h123l45 45v609h-170v88h170v192l-45 45h-123v94h438v-94h-123l-45 -45v-192h557v192l-45 45h-123v94h439v-94h-123l-45 -45v-192h172v-88h-172v-609l45 -45h123v-94h-439v94h123l45 45v328h-557v-328l45 -45h123zM350 555h557v193h-557v-193z" />
    <glyph glyph-name="hbar" unicode="&#x127;" 
d="M561 94v-94h-469v94h141l46 45v817h-187v82h187v109l-29 29h-158v79h285v-217h364v-82h-364v-305q45 83 133 139t212 56t210 -83q88 -83 88 -245v-379l45 -45h139v-94h-469v94h142l45 45v353q0 258 -224 258q-205 0 -321 -222v-389l45 -45h139z" />
    <glyph glyph-name="Itilde" unicode="&#x128;" 
d="M891 1581h94q0 -109 -55 -177t-144 -69q-57 0 -112 39q-56 39 -104 77t-92 38t-79 -41t-34 -107h-93q0 109 56 177t135 68q80 0 173 -78q93 -76 141 -76t81 40t33 109zM213 1073v94h831v-94h-317l-45 -45v-889l45 -45h317v-94h-831v94h317l45 45v889l-45 45h-317z" />
    <glyph glyph-name="itilde" unicode="&#x129;" 
d="M891 1315h94q0 -109 -55 -177t-144 -69q-57 0 -112 39q-56 39 -104 77t-92 38t-79 -41t-34 -107h-93q0 109 56 177t135 67q80 0 173 -77t141 -77t81 41t33 109zM1094 94v-94h-875v94h352l45 45v590l-45 45h-352v94h496v-729l45 -45h334z" />
    <glyph glyph-name="Imacron" unicode="&#x12a;" 
d="M322 1481h614v-99h-614v99zM213 1073v94h831v-94h-317l-45 -45v-889l45 -45h317v-94h-831v94h317l45 45v889l-45 45h-317z" />
    <glyph glyph-name="imacron" unicode="&#x12b;" 
d="M322 1200h614v-98h-614v98zM1094 94v-94h-875v94h352l45 45v590l-45 45h-352v94h496v-729l45 -45h334z" />
    <glyph glyph-name="Ibreve" unicode="&#x12c;" 
d="M629 1432q91 0 159 59t86 160l74 -19q-26 -150 -108 -234t-211 -83q-129 0 -212 84t-108 233l74 19q18 -99 87 -159t159 -60zM213 1073v94h831v-94h-317l-45 -45v-889l45 -45h317v-94h-831v94h317l45 45v889l-45 45h-317z" />
    <glyph glyph-name="ibreve" unicode="&#x12d;" 
d="M629 1159q91 -1 159 59t86 160l74 -18q-26 -150 -108 -234t-211 -84t-212 84t-108 234l74 18q18 -100 87 -160t159 -59zM1094 94v-94h-875v94h352l45 45v590l-45 45h-352v94h496v-729l45 -45h334z" />
    <glyph glyph-name="Iogonek" unicode="&#x12e;" 
d="M696 -471q-80 0 -123 44t-43 112q0 67 48 137t161 178h-526v94h317l45 45v889l-45 45h-317v94h831v-94h-317l-45 -45v-889l45 -45h317v-94h-188q-133 -131 -182 -191q-49 -59 -49 -105q-1 -46 21 -68t56 -21q86 0 181 100l49 -69q-113 -117 -236 -117z" />
    <glyph glyph-name="iogonek" unicode="&#x12f;" 
d="M692 -471q-80 0 -123 44t-43 112q0 67 48 137t161 178h-516v94h352l45 45v590l-45 45h-352v94h496v-729l45 -45h334v-94h-242q-133 -131 -182 -191q-49 -59 -49 -105q-1 -46 21 -68t56 -21q86 0 181 100l49 -69q-113 -117 -236 -117zM516 1211q0 50 34 84t83 34t84 -34
t35 -84t-35 -84q-35 -33 -84 -33t-83 34t-34 83z" />
    <glyph glyph-name="Idotaccent" unicode="&#x130;" 
d="M628 1346q-50 0 -84 34t-34 83q0 50 34 84t84 34t84 -34t34 -84t-34 -84q-34 -33 -84 -33zM213 1073v94h831v-94h-317l-45 -45v-889l45 -45h317v-94h-831v94h317l45 45v889l-45 45h-317z" />
    <glyph glyph-name="dotlessi" unicode="&#x131;" 
d="M1094 94v-94h-875v94h352l45 45v590l-45 45h-352v94h496v-729l45 -45h334z" />
    <glyph glyph-name="Jcircumflex" unicode="&#x134;" 
d="M827 1700q49 0 88 -55l203 -293l-41 -31l-250 231l-247 -231l-43 31l202 293q39 55 88 55zM838 453v575l-45 45h-344v94h696v-94h-156l-45 -45v-586q0 -227 -119 -349t-295 -122q-176 -1 -290 103t-113 243q0 59 36 99t85 41q49 0 80 -30q30 -30 30 -73q0 -42 -34 -72
t-80 -26q20 -82 94 -135t202 -53t213 93t85 292z" />
    <glyph glyph-name="jcircumflex" unicode="&#x135;" 
d="M150 -96q0 57 32 95q33 38 80 38t77 -28q30 -27 30 -67t-28 -67t-71 -27q23 -70 94 -116t166 -47q139 0 225 93q85 93 85 283v668l-45 45h-471v94h614v-817q0 -225 -114 -341t-282 -116t-280 94t-112 216zM838 1425q49 0 88 -55l202 -291l-41 -32l-249 231l-248 -231
l-43 32l203 291q39 55 88 55z" />
    <glyph glyph-name="Kcommaaccent" unicode="&#x136;" 
d="M518 94v-94h-438v94h123l45 45v889l-45 45h-123v94h438v-94h-123l-45 -45v-545l543 553l-37 37h-111v94h418v-94h-114l-402 -407l420 -572h141v-94h-448v94h121l34 37l-337 463l-228 -229v-226l45 -45h123zM524 -255q0 42 33 75t79 33t79 -34t33 -79t-33 -88l-191 -238
l-47 33l127 193q-36 8 -58 36t-22 69z" />
    <glyph glyph-name="kcommaaccent" unicode="&#x137;" 
d="M571 94v-94h-485v94h150l45 45v977l-45 45h-156v94h299v-874l483 364l-14 29h-152v94h455v-94h-107l-397 -291l338 -389h219v-94h-350v94l-287 330l-188 -137v-148l45 -45h147zM530 -255q0 42 33 75t79 33t79 -34t33 -79t-33 -88l-191 -238l-47 33l127 193q-36 8 -58 36
t-22 69z" />
    <glyph glyph-name="kgreenlandic" unicode="&#x138;" 
d="M571 94v-94h-485v94h150l45 45v590l-45 45h-156v94h299v-487l483 364l-14 29h-152v94h455v-94h-107l-397 -291l338 -389h219v-94h-350v94l-287 330l-188 -137v-148l45 -45h147z" />
    <glyph glyph-name="Lacute" unicode="&#x139;" 
d="M98 1167h545v-94h-182l-45 -45v-934h563l45 45v283h96v-422h-1022v94h170l45 45v889l-45 45h-170v94zM342 1352l143 297q29 70 93 69q34 0 58 -24t24 -64q0 -41 -50 -80l-235 -223z" />
    <glyph glyph-name="lacute" unicode="&#x13a;" 
d="M1094 94v-94h-875v94h352l45 45v977l-45 45h-352v94h496v-1116l45 -45h334zM827 1774q35 0 59 -24t24 -64t-50 -80l-235 -224l-33 25l143 297q29 70 92 70z" />
    <glyph glyph-name="Lcommaaccent" unicode="&#x13b;" 
d="M98 1167h545v-94h-182l-45 -45v-934h563l45 45v283h96v-422h-1022v94h170l45 45v889l-45 45h-170v94zM492 -255q0 42 32 75q33 33 79 33t79 -34t33 -79t-33 -88l-190 -238l-48 33l127 193q-35 8 -57 36t-22 69z" />
    <glyph glyph-name="lcommaaccent" unicode="&#x13c;" 
d="M1094 94v-94h-875v94h352l45 45v977l-45 45h-352v94h496v-1116l45 -45h334zM545 -255q0 42 33 75q32 33 78 33t79 -34t33 -79t-33 -88l-190 -238l-47 33l127 193q-35 8 -58 35q-22 28 -22 70z" />
    <glyph glyph-name="Lcaron" unicode="&#x13d;" 
d="M98 1167h545v-94h-182l-45 -45v-934h563l45 45v283h96v-422h-1022v94h170l45 45v889l-45 45h-170v94zM1022 1292q32 0 56 -22t24 -60q0 -37 -37 -80l-227 -253l-37 20l127 315q27 80 94 80z" />
    <glyph glyph-name="lcaron" unicode="&#x13e;" 
d="M1094 94v-94h-875v94h352l45 45v977l-45 45h-352v94h496v-1116l45 -45h334zM1059 1464q33 0 57 -22t23 -60q0 -37 -37 -79l-228 -254l-36 20l127 315q27 80 94 80z" />
    <glyph glyph-name="Ldot" unicode="&#x13f;" 
d="M927 674q-50 0 -84 34t-34 84t34 84t84 34t84 -34q33 -34 33 -84t-34 -84t-83 -34zM98 1167h545v-94h-182l-45 -45v-934h563l45 45v283h96v-422h-1022v94h170l45 45v889l-45 45h-170v94z" />
    <glyph glyph-name="ldot" unicode="&#x140;" 
d="M1242 557q-50 0 -84 34t-34 84t34 84t84 34t84 -34t34 -84t-34 -84t-84 -34zM1094 94v-94h-875v94h352l45 45v977l-45 45h-352v94h496v-1116l45 -45h334z" />
    <glyph glyph-name="Lslash" unicode="&#x141;" 
d="M1120 0h-1022v94h170l45 45v373l-184 -86l-35 88l219 98v416l-45 45h-170v94h545v-94h-182l-45 -45v-375l354 162l35 -88l-389 -176v-457h563l45 45v283h96v-422z" />
    <glyph glyph-name="lslash" unicode="&#x142;" 
d="M1094 0h-875v94h352l45 45v477l-311 -155l-45 84l356 178v393l-45 45h-352v94h496v-483l293 146l45 -84l-338 -168v-527l45 -45h334v-94z" />
    <glyph glyph-name="Nacute" unicode="&#x143;" 
d="M1024 0h-111l-567 1040v-901l45 -45h123v-94h-434v94h123l45 45v889l-45 45h-123v94h315l531 -989v850l-45 45h-123v94h434v-94h-123l-45 -45v-1028zM889 1630q0 -41 -49 -80l-236 -223l-33 25l144 297q29 70 92 69q35 0 59 -24t23 -64z" />
    <glyph glyph-name="nacute" unicode="&#x144;" 
d="M561 94v-94h-469v94h141l46 45v590l-46 45h-141v94h285v-166q45 82 133 138t212 57q124 0 210 -83q88 -83 88 -245v-430l45 -45h139v-94h-469v94h142l45 45v404q0 258 -224 258q-204 0 -321 -221v-441l45 -45h139zM813 1438q35 0 59 -24t23 -64q0 -40 -49 -80l-236 -223
l-32 24l143 297q29 70 92 70z" />
    <glyph glyph-name="Ncommaaccent" unicode="&#x145;" 
d="M1024 0h-111l-567 1040v-901l45 -45h123v-94h-434v94h123l45 45v889l-45 45h-123v94h315l531 -989v850l-45 45h-123v94h434v-94h-123l-45 -45v-1028zM524 -255q0 42 33 75t79 33t79 -34t33 -79t-33 -88l-191 -238l-47 33l127 193q-36 8 -58 36t-22 69z" />
    <glyph glyph-name="ncommaaccent" unicode="&#x146;" 
d="M561 94v-94h-469v94h141l46 45v590l-46 45h-141v94h285v-166q45 82 133 138t212 57q124 0 210 -83q88 -83 88 -245v-430l45 -45h139v-94h-469v94h142l45 45v404q0 258 -224 258q-204 0 -321 -221v-441l45 -45h139zM535 -255q0 42 32 75q33 33 79 33t79 -34t33 -79
t-33 -88l-190 -238l-48 33l127 193q-35 8 -57 36t-22 69z" />
    <glyph glyph-name="Ncaron" unicode="&#x147;" 
d="M1024 0h-111l-567 1040v-901l45 -45h123v-94h-434v94h123l45 45v889l-45 45h-123v94h315l531 -989v850l-45 45h-123v94h434v-94h-123l-45 -45v-1028zM637 1327q-53 0 -88 55l-203 291l43 33l248 -233l250 233l41 -33l-203 -291q-35 -55 -88 -55z" />
    <glyph glyph-name="ncaron" unicode="&#x148;" 
d="M561 94v-94h-469v94h141l46 45v590l-46 45h-141v94h285v-166q45 82 133 138t212 57q124 0 210 -83q88 -83 88 -245v-430l45 -45h139v-94h-469v94h142l45 45v404q0 258 -224 258q-204 0 -321 -221v-441l45 -45h139zM647 1047q-53 0 -88 55l-203 291l43 32l248 -233
l250 233l41 -32l-203 -291q-35 -55 -88 -55z" />
    <glyph glyph-name="Eng" unicode="&#x14a;" 
d="M514 94v-94h-434v94h123l45 45v889l-45 45h-123v94h315l531 -989v850l-45 45h-123v94h434v-94h-123l-45 -45v-1044q0 -391 -301 -392q-109 0 -179 60t-69 160q0 48 28 80q27 32 67 32t66 -24t26 -58q0 -68 -78 -73q27 -88 139 -88q199 0 201 303l-578 1056v-901l45 -45
h123z" />
    <glyph glyph-name="eng" unicode="&#x14b;" 
d="M739 -406q-109 0 -179 60t-68 158q0 48 28 80t67 32t65 -24t26 -57q0 -34 -22 -53t-58 -19q25 -93 133 -93t158 75q49 75 49 243v547q0 258 -219 258q-205 0 -322 -221v-441l45 -45h140v-94h-469v94h141l45 45v590l-45 45h-141v94h284v-166q45 82 133 138t212 57
q124 0 211 -83t87 -245v-577q0 -398 -301 -398z" />
    <glyph glyph-name="Omacron" unicode="&#x14c;" 
d="M1040 584q0 219 -109 364q-111 146 -303 146t-302 -146t-109 -364q0 -218 110 -364q111 -146 303 -146t301 146t109 364zM1151 584q0 -264 -143 -438t-379 -175q-236 0 -379 174q-144 175 -144 439t144 438t379 174q236 0 379 -174t143 -438zM322 1481h614v-99h-614v99z
" />
    <glyph glyph-name="omacron" unicode="&#x14d;" 
d="M991 434q0 156 -102 261t-260 105t-260 -104q-103 -106 -103 -262t102 -261t261 -105q158 0 260 105t102 261zM158 434q0 197 134 330t337 133t337 -133t134 -330t-134 -330t-337 -133t-337 133t-134 330zM322 1200h614v-98h-614v98z" />
    <glyph glyph-name="Obreve" unicode="&#x14e;" 
d="M1040 584q0 219 -109 364q-111 146 -303 146t-302 -146t-109 -364q0 -218 110 -364q111 -146 303 -146t301 146t109 364zM1151 584q0 -264 -143 -438t-379 -175q-236 0 -379 174q-144 175 -144 439t144 438t379 174q236 0 379 -174t143 -438zM629 1432q91 0 159 59
t86 160l74 -19q-26 -150 -108 -234t-211 -83q-129 0 -212 84t-108 233l74 19q18 -99 87 -159t159 -60z" />
    <glyph glyph-name="obreve" unicode="&#x14f;" 
d="M629 1159q91 -1 159 59t86 160l74 -18q-26 -150 -108 -234t-211 -84t-212 84t-108 234l74 18q18 -100 87 -160t159 -59zM991 434q0 156 -102 261t-260 105t-260 -104q-103 -106 -103 -262t102 -261t261 -105q158 0 260 105t102 261zM158 434q0 197 134 330t337 133
t337 -133t134 -330t-134 -330t-337 -133t-337 133t-134 330z" />
    <glyph glyph-name="Ohungarumlaut" unicode="&#x150;" 
d="M725 1631q0 -40 -47 -81l-236 -223l-32 25l141 297q33 70 94 69q35 0 57 -24t23 -63zM1090 1630q0 -41 -50 -80l-235 -223l-33 25l143 297q29 70 93 69q34 0 58 -24t24 -64zM1040 584q0 219 -109 364q-111 146 -303 146t-302 -146t-109 -364q0 -218 110 -364
q111 -146 303 -146t301 146t109 364zM1151 584q0 -264 -143 -438t-379 -175q-236 0 -379 174q-144 175 -144 439t144 438t379 174q236 0 379 -174t143 -438z" />
    <glyph glyph-name="ohungarumlaut" unicode="&#x151;" 
d="M991 434q0 156 -102 261t-260 105t-260 -104q-103 -106 -103 -262t102 -261t261 -105q158 0 260 105t102 261zM158 434q0 197 134 330t337 133t337 -133t134 -330t-134 -330t-337 -133t-337 133t-134 330zM623 1438q35 0 57 -24t22 -64t-47 -80l-235 -223l-33 24l141 297
q33 70 95 70zM985 1438q35 0 59 -24t23 -64q0 -40 -49 -80l-236 -223l-32 24l143 297q29 70 92 70z" />
    <glyph glyph-name="OE" unicode="&#x152;" 
d="M631 94v979q-236 0 -358 -135q-121 -135 -121 -354t121 -355q122 -135 358 -135zM1198 0h-569q-285 0 -435 161t-149 423q0 262 150 423t434 160h553v-360h-97v221l-45 45h-309v-426h283v-90h-283v-463h326l45 45v230h96v-369z" />
    <glyph glyph-name="oe" unicode="&#x153;" 
d="M934 -29q-100 0 -179 66t-122 176q-37 -111 -111 -177t-168 -65q-139 0 -231 131t-92 329t93 332t230 134q94 0 168 -67t111 -181q39 115 116 181t173 67q141 0 223 -139t82 -346h-543q4 -144 73 -244t187 -100t217 131l60 -66q-123 -162 -287 -162zM582 432
q0 158 -64 263t-164 105t-162 -104q-62 -106 -63 -264q0 -158 62 -260q63 -102 163 -102t164 102t64 260zM920 801q-92 0 -156 -83t-78 -218h434q-6 133 -57 217t-143 84z" />
    <glyph glyph-name="Racute" unicode="&#x154;" 
d="M551 1352l143 297q29 70 92 69q35 0 59 -24q23 -24 23 -64q0 -41 -49 -80l-235 -223zM532 0h-452v94h121l45 45v889l-45 45h-121v94h541q457 0 456 -315q0 -291 -393 -313l332 -443h198v-96h-331v94l-322 443h-213v-398l45 -45h139v-94zM348 1073v-442h268q350 0 351 221
q0 221 -351 221h-268z" />
    <glyph glyph-name="racute" unicode="&#x155;" 
d="M1009 539q-50 1 -78 25t-28 65t25 65t53 25q28 0 45 -12q2 14 -4 24q-8 72 -119 74q-174 0 -420 -307v-359l45 -45h381v-94h-800v94h231l45 45v590l-45 45h-231v94h374v-250q219 279 418 279q115 0 174 -58q59 -59 59 -137t-37 -120q-38 -42 -88 -43zM811 1438
q35 0 59 -24t23 -64q0 -40 -49 -80l-236 -223l-33 24l144 297q29 70 92 70z" />
    <glyph glyph-name="Rcommaaccent" unicode="&#x156;" 
d="M532 0h-452v94h121l45 45v889l-45 45h-121v94h541q457 0 456 -315q0 -291 -393 -313l332 -443h198v-96h-331v94l-322 443h-213v-398l45 -45h139v-94zM348 1073v-442h268q350 0 351 221q0 221 -351 221h-268zM502 -255q0 42 33 75t79 33t78 -34q33 -34 33 -79t-33 -88
l-190 -238l-47 33l127 193q-35 8 -58 35q-22 28 -22 70z" />
    <glyph glyph-name="rcommaaccent" unicode="&#x157;" 
d="M1009 539q-50 1 -78 25t-28 65t25 65t53 25q28 0 45 -12q2 14 -4 24q-8 72 -119 74q-174 0 -420 -307v-359l45 -45h381v-94h-800v94h231l45 45v590l-45 45h-231v94h374v-250q219 279 418 279q115 0 174 -58q59 -59 59 -137t-37 -120q-38 -42 -88 -43zM326 -255
q0 42 32 75q33 33 79 33t79 -34t33 -79t-33 -88l-190 -238l-47 33l127 193q-35 8 -58 35q-22 28 -22 70z" />
    <glyph glyph-name="Rcaron" unicode="&#x158;" 
d="M532 0h-452v94h121l45 45v889l-45 45h-121v94h541q457 0 456 -315q0 -291 -393 -313l332 -443h198v-96h-331v94l-322 443h-213v-398l45 -45h139v-94zM348 1073v-442h268q350 0 351 221q0 221 -351 221h-268zM602 1327q-53 0 -88 55l-203 291l43 33l248 -233l250 233
l41 -33l-203 -291q-35 -55 -88 -55z" />
    <glyph glyph-name="rcaron" unicode="&#x159;" 
d="M1009 539q-50 1 -78 25t-28 65t25 65t53 25q28 0 45 -12q2 14 -4 24q-8 72 -119 74q-174 0 -420 -307v-359l45 -45h381v-94h-800v94h231l45 45v590l-45 45h-231v94h374v-250q219 279 418 279q115 0 174 -58q59 -59 59 -137t-37 -120q-38 -42 -88 -43zM645 1047
q-53 0 -88 55l-203 291l43 32l248 -233l250 233l41 -32l-203 -291q-35 -55 -88 -55z" />
    <glyph glyph-name="Sacute" unicode="&#x15a;" 
d="M551 1352l143 297q29 70 92 69q35 0 59 -24q23 -24 23 -64q0 -41 -49 -80l-235 -223zM685 68q134 0 220 66t86 179q0 154 -194 203l-297 74q-158 42 -235 106t-77 197t109 218t278 85q219 0 343 -174l24 14v131h100v-376h-84q-113 309 -383 309q-123 0 -203 -58t-79 -146
q0 -89 56 -132t169 -70l301 -76q276 -72 277 -301q0 -153 -114 -249t-298 -97q-116 1 -224 57t-161 142l-25 -14v-156h-98v408h84q57 -168 174 -254t251 -86z" />
    <glyph glyph-name="sacute" unicode="&#x15b;" 
d="M213 662q0 101 92 168t234 67q225 0 340 -145l22 8v108h92v-288h-78q-47 102 -149 165t-210 63t-174 -40q-65 -40 -65 -104q1 -64 47 -93t144 -49l299 -61q115 -25 173 -77t58 -161t-90 -181t-232 -71q-142 0 -241 46q-100 46 -158 118l-26 -16v-119h-92v307h86
q147 -246 409 -246q114 0 178 44q64 43 64 115t-42 102t-120 47l-289 57q-141 29 -207 82t-65 154zM784 1438q35 0 59 -24q23 -24 23 -64t-49 -80l-235 -223l-33 24l143 297q29 70 92 70z" />
    <glyph glyph-name="Scircumflex" unicode="&#x15c;" 
d="M614 1700q49 0 88 -55l203 -293l-41 -31l-250 231l-247 -231l-43 31l202 293q39 55 88 55zM685 68q134 0 220 66t86 179q0 154 -194 203l-297 74q-158 42 -235 106t-77 197t109 218t278 85q219 0 343 -174l24 14v131h100v-376h-84q-113 309 -383 309q-123 0 -203 -58
t-79 -146q0 -89 56 -132t169 -70l301 -76q276 -72 277 -301q0 -153 -114 -249t-298 -97q-116 1 -224 57t-161 142l-25 -14v-156h-98v408h84q57 -168 174 -254t251 -86z" />
    <glyph glyph-name="scircumflex" unicode="&#x15d;" 
d="M213 662q0 101 92 168t234 67q225 0 340 -145l22 8v108h92v-288h-78q-47 102 -149 165t-210 63t-174 -40q-65 -40 -65 -104q1 -64 47 -93t144 -49l299 -61q115 -25 173 -77t58 -161t-90 -181t-232 -71q-142 0 -241 46q-100 46 -158 118l-26 -16v-119h-92v307h86
q147 -246 409 -246q114 0 178 44q64 43 64 115t-42 102t-120 47l-289 57q-141 29 -207 82t-65 154zM618 1425q49 0 89 -55l202 -291l-41 -32l-250 231l-247 -231l-43 32l202 291q39 55 88 55z" />
    <glyph glyph-name="Scedilla" unicode="&#x15e;" 
d="M606 -465q-92 0 -170 41t-110 123l75 47q55 -133 197 -133t143 102q0 49 -47 78t-139 25l-70 47l58 129q-168 53 -244 176l-25 -14v-156h-98v408h84q57 -168 174 -254t251 -86t220 66t86 179q0 154 -194 203l-297 74q-158 42 -235 106t-77 197t109 218t278 85
q219 0 343 -174l24 14v131h100v-376h-84q-113 309 -383 309q-123 0 -203 -58t-79 -146q0 -89 56 -132t169 -70l301 -76q276 -72 277 -301q0 -153 -114 -249t-298 -97q-33 0 -70 6l-34 -83q118 0 184 -46t66 -132q0 -87 -66 -134t-158 -47z" />
    <glyph glyph-name="scedilla" unicode="&#x15f;" 
d="M614 -465q-92 0 -170 41t-110 123l76 47q55 -133 197 -133t143 102q0 49 -48 78t-139 25l-69 47l55 127q-147 39 -232 143l-26 -16v-119h-92v307h86q147 -246 409 -246q114 0 178 44q64 43 64 115t-42 102t-120 47l-289 57q-141 29 -207 82t-65 154q0 101 92 168t234 67
q225 0 340 -145l22 8v108h92v-288h-78q-47 102 -149 165t-210 63t-174 -40q-65 -40 -65 -104q1 -64 47 -93t144 -49l299 -61q115 -25 173 -77t58 -161t-90 -181t-250 -71q-27 0 -75 4l-35 -81q118 0 184 -46t66 -132q0 -87 -66 -134t-158 -47z" />
    <glyph glyph-name="Scaron" unicode="&#x160;" 
d="M614 1327q-53 0 -88 55l-202 291l43 33l247 -233l250 233l41 -33l-203 -291q-35 -55 -88 -55zM685 68q134 0 220 66t86 179q0 154 -194 203l-297 74q-158 42 -235 106t-77 197t109 218t278 85q219 0 343 -174l24 14v131h100v-376h-84q-113 309 -383 309q-123 0 -203 -58
t-79 -146q0 -89 56 -132t169 -70l301 -76q276 -72 277 -301q0 -153 -114 -249t-298 -97q-116 1 -224 57t-161 142l-25 -14v-156h-98v408h84q57 -168 174 -254t251 -86z" />
    <glyph glyph-name="scaron" unicode="&#x161;" 
d="M213 662q0 101 92 168t234 67q225 0 340 -145l22 8v108h92v-288h-78q-47 102 -149 165t-210 63t-174 -40q-65 -40 -65 -104q1 -64 47 -93t144 -49l299 -61q115 -25 173 -77t58 -161t-90 -181t-232 -71q-142 0 -241 46q-100 46 -158 118l-26 -16v-119h-92v307h86
q147 -246 409 -246q114 0 178 44q64 43 64 115t-42 102t-120 47l-289 57q-141 29 -207 82t-65 154zM618 1047q-53 0 -88 55l-202 291l43 32l247 -233l250 233l41 -32l-202 -291q-36 -55 -89 -55z" />
    <glyph glyph-name="Tcommaaccent" unicode="&#x162;" 
d="M639 -465q-92 0 -170 41t-111 123l76 47q56 -133 198 -133t142 102q0 49 -47 78t-139 25l-70 47l60 135h-287v94h239l45 45v934h-327l-45 -45v-283h-97v422h1045v-422h-96v283l-45 45h-328v-934l45 -45h240v-94h-310l-45 -106q117 0 184 -46q66 -46 66 -132
q0 -87 -66 -134t-157 -47z" />
    <glyph glyph-name="tcommaaccent" unicode="&#x163;" 
d="M684 -465q-92 0 -170 41t-111 123l76 47q55 -133 197 -133t143 102q0 49 -47 78t-139 25l-70 47l53 121q-270 66 -270 413v330l-45 45h-211v94h256v316h103v-316h538v-94h-495l-46 -45v-315q0 -344 295 -344q190 0 320 184l65 -61q-147 -221 -385 -222q-33 0 -49 2
l-35 -79q117 0 184 -46t67 -132q0 -87 -66 -134t-158 -47z" />
    <glyph glyph-name="Tcaron" unicode="&#x164;" 
d="M106 1167h1045v-422h-96v283l-45 45h-328v-934l45 -45h240v-94h-676v94h239l45 45v934h-327l-45 -45v-283h-97v422zM629 1327q-53 0 -88 55l-203 291l43 33l248 -233l250 233l41 -33l-203 -291q-35 -55 -88 -55z" />
    <glyph glyph-name="tcaron" unicode="&#x165;" 
d="M90 774v94h256v316h103v-316h538v-94h-495l-46 -45v-315q0 -344 295 -344q190 0 320 184l65 -61q-147 -221 -385 -222q-179 -1 -287 103t-108 325v330l-45 45h-211zM918 1464q32 0 56 -22t24 -60q0 -37 -37 -79l-228 -254l-37 20l127 315q27 80 95 80z" />
    <glyph glyph-name="Tbar" unicode="&#x166;" 
d="M967 94v-94h-676v94h239l45 45v391h-231v95h231v448h-327l-45 -45v-283h-97v422h1045v-422h-96v283l-45 45h-328v-448h231v-95h-231v-391l45 -45h240z" />
    <glyph glyph-name="tbar" unicode="&#x167;" 
d="M346 399v68h-256v92h256v170l-45 45h-211v94h256v316h103v-316h538v-94h-495l-46 -45v-170h519v-92h-519v-53q0 -344 295 -344q190 0 320 184l65 -61q-147 -221 -385 -222q-179 -1 -287 103t-108 325z" />
    <glyph glyph-name="Utilde" unicode="&#x168;" 
d="M629 -29q-174 0 -288 114t-114 288v655l-45 45h-123v94h439v-94h-123l-45 -45v-649q0 -137 85 -223t214 -86t214 86t85 223v649l-45 45h-123v94h438v-94h-123l-45 -45v-655q0 -174 -114 -288t-287 -114zM901 1581h94q0 -109 -55 -177t-143 -69q-57 0 -113 39t-103 77
q-48 38 -92 38t-79 -41t-35 -107h-92q0 109 55 177t135 68t173 -78q93 -76 141 -76t81 40t33 109z" />
    <glyph glyph-name="utilde" unicode="&#x169;" 
d="M858 1315h94q0 -109 -55 -177t-143 -69q-56 0 -112 39t-104 77t-92 38t-79 -41t-35 -107h-92q0 109 55 177t135 67q80 0 173 -77t141 -77t81 41t33 109zM694 868h285v-729l45 -45h139v-94h-282v166q-45 -82 -133 -138t-213 -56t-212 82q-87 83 -87 245v430l-46 45h-139
v94h283v-542q0 -258 223 -258q207 0 324 221v440l-45 45h-142v94z" />
    <glyph glyph-name="Umacron" unicode="&#x16a;" 
d="M629 -29q-174 0 -288 114t-114 288v655l-45 45h-123v94h439v-94h-123l-45 -45v-649q0 -137 85 -223t214 -86t214 86t85 223v649l-45 45h-123v94h438v-94h-123l-45 -45v-655q0 -174 -114 -288t-287 -114zM322 1481h614v-99h-614v99z" />
    <glyph glyph-name="umacron" unicode="&#x16b;" 
d="M289 1200h614v-98h-614v98zM694 868h285v-729l45 -45h139v-94h-282v166q-45 -82 -133 -138t-213 -56t-212 82q-87 83 -87 245v430l-46 45h-139v94h283v-542q0 -258 223 -258q207 0 324 221v440l-45 45h-142v94z" />
    <glyph glyph-name="Ubreve" unicode="&#x16c;" 
d="M629 -29q-174 0 -288 114t-114 288v655l-45 45h-123v94h439v-94h-123l-45 -45v-649q0 -137 85 -223t214 -86t214 86t85 223v649l-45 45h-123v94h438v-94h-123l-45 -45v-655q0 -174 -114 -288t-287 -114zM629 1432q91 0 159 59t86 160l74 -19q-26 -150 -108 -234t-211 -83
q-129 0 -212 84t-108 233l74 19q18 -99 87 -159t159 -60z" />
    <glyph glyph-name="ubreve" unicode="&#x16d;" 
d="M596 1159q90 -1 159 59t87 160l73 -18q-25 -150 -107 -234t-212 -84q-129 0 -212 84t-108 234l74 18q18 -100 87 -160t159 -59zM694 868h285v-729l45 -45h139v-94h-282v166q-45 -82 -133 -138t-213 -56t-212 82q-87 83 -87 245v430l-46 45h-139v94h283v-542
q0 -258 223 -258q207 0 324 221v440l-45 45h-142v94z" />
    <glyph glyph-name="Uring" unicode="&#x16e;" 
d="M850 1528q0 -94 -64 -158t-157 -63q-94 0 -158 63q-63 64 -63 158t63 158t157 63q94 1 158 -63t64 -158zM758 1528q0 59 -36 96t-93 37t-93 -37t-36 -96t36 -96t93 -37t93 37t36 96zM629 -29q-174 0 -288 114t-114 288v655l-45 45h-123v94h439v-94h-123l-45 -45v-649
q0 -137 85 -223t214 -86t214 86t85 223v649l-45 45h-123v94h438v-94h-123l-45 -45v-655q0 -174 -114 -288t-287 -114z" />
    <glyph glyph-name="uring" unicode="&#x16f;" 
d="M694 868h285v-729l45 -45h139v-94h-282v166q-45 -82 -133 -138t-213 -56t-212 82q-87 83 -87 245v430l-46 45h-139v94h283v-542q0 -258 223 -258q207 0 324 221v440l-45 45h-142v94zM817 1247q0 -94 -63 -157q-64 -64 -158 -64t-158 64t-63 157q0 93 63 157q64 64 158 64
t158 -63q63 -64 63 -158zM729 1248q0 60 -37 98t-96 38t-96 -38t-37 -98t37 -99t96 -39t96 39t37 99z" />
    <glyph glyph-name="Uhungarumlaut" unicode="&#x170;" 
d="M725 1631q0 -40 -47 -81l-236 -223l-32 25l141 297q33 70 94 69q35 0 57 -24t23 -63zM1090 1630q0 -41 -50 -80l-235 -223l-33 25l143 297q29 70 93 69q34 0 58 -24t24 -64zM629 -29q-174 0 -288 114t-114 288v655l-45 45h-123v94h439v-94h-123l-45 -45v-649
q0 -137 85 -223t214 -86t214 86t85 223v649l-45 45h-123v94h438v-94h-123l-45 -45v-655q0 -174 -114 -288t-287 -114z" />
    <glyph glyph-name="uhungarumlaut" unicode="&#x171;" 
d="M590 1438q36 0 58 -24t22 -64t-47 -80l-236 -223l-33 24l142 297q33 70 94 70zM952 1438q35 0 59 -24q23 -24 23 -64t-49 -80l-235 -223l-33 24l143 297q29 70 92 70zM694 868h285v-729l45 -45h139v-94h-282v166q-45 -82 -133 -138t-213 -56t-212 82q-87 83 -87 245v430
l-46 45h-139v94h283v-542q0 -258 223 -258q207 0 324 221v440l-45 45h-142v94z" />
    <glyph glyph-name="Uogonek" unicode="&#x172;" 
d="M653 -471q-80 0 -123 44q-43 43 -43 109t43 131t140 160q-14 -2 -41 -2q-174 0 -288 114t-114 288v655l-45 45h-123v94h439v-94h-123l-45 -45v-649q0 -137 85 -223t214 -86t214 86t85 223v649l-45 45h-123v94h438v-94h-123l-45 -45v-655q0 -115 -51 -206t-141 -142
q-152 -147 -204 -211t-52 -110t22 -68t55 -21q86 0 181 100l49 -69q-113 -117 -236 -117z" />
    <glyph glyph-name="uogonek" unicode="&#x173;" 
d="M838 -471q-80 0 -123 44t-43 112q0 67 48 137t161 178v166q-45 -82 -133 -138t-213 -56t-212 82q-87 83 -87 245v430l-46 45h-139v94h283v-542q0 -258 223 -258q207 0 324 221v440l-45 45h-142v94h285v-729l45 -45h139v-94h-166q-133 -131 -182 -191q-49 -59 -49 -105
t22 -68t56 -21q86 0 180 100l49 -69q-113 -117 -235 -117z" />
    <glyph glyph-name="Wcircumflex" unicode="&#x174;" 
d="M629 1700q49 0 88 -55l203 -293l-41 -31l-250 231l-248 -231l-43 31l203 293q39 55 88 55zM803 1073v94h436v-94h-104l-136 -1073h-202l-166 782l-166 -782h-207l-133 1073h-107v94h443v-94h-195l-30 -37l112 -936h49l164 781h139l166 -781h49l111 936l-29 37h-194z" />
    <glyph glyph-name="wcircumflex" unicode="&#x175;" 
d="M809 774v94h397v-94h-100l-154 -774h-180l-143 557l-144 -557h-180l-153 774h-101v94h402v-94h-168l-25 -31l121 -657h43l139 561h135l140 -561h43l120 657l-24 31h-168zM629 1425q49 0 88 -55l203 -291l-41 -32l-250 231l-248 -231l-43 32l203 291q39 55 88 55z" />
    <glyph glyph-name="Ycircumflex" unicode="&#x176;" 
d="M629 1700q49 0 88 -55l203 -293l-41 -31l-250 231l-248 -231l-43 31l203 293q39 55 88 55zM967 94v-94h-676v94h239l45 45v299l-428 635h-127v94h480v-94h-168l-37 -37l340 -510l336 510l-37 37h-168v94h471v-94h-127l-428 -635v-299l45 -45h240z" />
    <glyph glyph-name="ycircumflex" unicode="&#x177;" 
d="M651 1425q49 0 88 -55l203 -291l-41 -32l-250 231l-248 -231l-43 32l203 291q39 55 88 55zM86 -221q0 53 33 89t78 36t75 -27t31 -66q-1 -39 -25 -63t-63 -27q18 -47 92 -47t126 69t151 261l-400 770h-114v94h438v-94h-160l-29 -35l320 -635l319 635l-28 35h-160v94h430
v-94h-115l-419 -813q-104 -203 -180 -289t-172 -86t-162 54t-66 139z" />
    <glyph glyph-name="Ydieresis" unicode="&#x178;" 
d="M417 1352q-48 0 -83 34t-35 80q0 47 35 81t83 34t82 -34q33 -34 33 -81t-33 -81q-34 -33 -82 -33zM842 1350q-49 0 -83 34t-34 81q0 48 34 82t83 34t83 -34q33 -34 33 -82t-33 -82q-34 -33 -83 -33zM967 94v-94h-676v94h239l45 45v299l-428 635h-127v94h480v-94h-168
l-37 -37l340 -510l336 510l-37 37h-168v94h471v-94h-127l-428 -635v-299l45 -45h240z" />
    <glyph glyph-name="Zacute" unicode="&#x179;" 
d="M881 1630q0 -41 -50 -80l-235 -223l-33 25l144 297q29 70 92 69q35 0 59 -24t23 -64zM1018 377h100v-377h-981v113l846 960h-670l-45 -45v-229h-98v368h924v-123l-840 -950h719l45 45v238z" />
    <glyph glyph-name="zacute" unicode="&#x17a;" 
d="M979 346h94v-346h-905v109l750 669h-584l-45 -45v-201h-94v336h847v-108l-753 -668h645l45 45v209zM803 1438q35 0 59 -24t23 -64q0 -40 -49 -80l-236 -223l-33 24l144 297q29 70 92 70z" />
    <glyph glyph-name="Zdotaccent" unicode="&#x17b;" 
d="M1018 377h100v-377h-981v113l846 960h-670l-45 -45v-229h-98v368h924v-123l-840 -950h719l45 45v238zM628 1346q-50 0 -84 34t-34 83q0 50 34 84t84 34t84 -34t34 -84t-34 -84q-34 -33 -84 -33z" />
    <glyph glyph-name="zdotaccent" unicode="&#x17c;" 
d="M756 1211q0 -49 -34 -83t-84 -34t-84 34t-34 83q0 50 34 84t84 34t84 -34t34 -84zM979 346h94v-346h-905v109l750 669h-584l-45 -45v-201h-94v336h847v-108l-753 -668h645l45 45v209z" />
    <glyph glyph-name="Zcaron" unicode="&#x17d;" 
d="M1018 377h100v-377h-981v113l846 960h-670l-45 -45v-229h-98v368h924v-123l-840 -950h719l45 45v238zM629 1327q-53 0 -88 55l-203 291l43 33l248 -233l250 233l41 -33l-203 -291q-35 -55 -88 -55z" />
    <glyph glyph-name="zcaron" unicode="&#x17e;" 
d="M979 346h94v-346h-905v109l750 669h-584l-45 -45v-201h-94v336h847v-108l-753 -668h645l45 45v209zM637 1047q-53 0 -88 55l-203 291l43 32l248 -233l250 233l41 -32l-203 -291q-35 -55 -88 -55z" />
    <glyph glyph-name="florin" unicode="&#x192;" 
d="M315 -367q-131 0 -199 79t-69 198q0 55 30 89t73 34q42 0 70 -26q28 -27 28 -63t-27 -61t-69 -22q10 -59 51 -99t112 -38q182 0 213 282l47 434h-260v92h271l32 289q43 375 324 375q129 0 199 -79t69 -197q0 -55 -29 -90q-30 -34 -74 -34t-71 26q-26 24 -26 62t26 62
t68 23q-8 59 -49 98t-113 39q-184 0 -213 -283l-33 -291h273v-92h-283l-47 -432q-43 -375 -324 -375z" />
    <glyph glyph-name="Aringacute" unicode="&#x1fa;" 
d="M758 2032q34 0 58 -24t24 -64t-49 -80l-236 -224l-33 25l144 297q29 70 92 70zM469 94v-94h-449v94h127l406 1039q-66 23 -106 79q-39 56 -39 139t63 147t157 64t158 -62q64 -64 64 -148t-40 -141q-40 -56 -105 -78l405 -1039h127v-94h-457v94h168l37 37l-106 275h-506
l-107 -275l35 -37h168zM842 500l-217 563l-217 -563h434zM758 1341q0 59 -36 97t-93 37q-57 0 -93 -37q-36 -36 -36 -96t36 -97t93 -37t93 37t36 96z" />
    <glyph glyph-name="aringacute" unicode="&#x1fb;" 
d="M752 1913q34 0 58 -24q24 -23 24 -63t-50 -81l-235 -223l-33 24l143 297q29 70 93 70zM801 1204q1 -94 -63 -157t-158 -63t-158 62q-64 64 -64 158t64 158t158 63q94 1 158 -63t63 -158zM713 1205q0 61 -37 99t-96 38t-97 -38q-37 -38 -37 -98t37 -100q37 -39 97 -39
t96 39q37 39 37 99zM262 207q0 -68 51 -106t125 -38q193 0 383 201v197l-299 -72q-260 -47 -260 -182zM197 692q0 96 117 151q118 54 277 54t246 -82t87 -235v-369q0 -143 94 -143q55 0 123 75l53 -67q-86 -104 -175 -104t-139 50q-50 52 -57 144q-72 -86 -175 -140
t-222 -54t-196 60q-76 62 -76 172t86 172t264 95l317 74v37q0 227 -243 227q-147 0 -238 -51q53 -18 53 -78q1 -37 -27 -63q-28 -25 -71 -25t-71 28t-27 72z" />
    <glyph glyph-name="AEacute" unicode="&#x1fc;" 
d="M332 94v-94h-309v98l444 938l-33 37h-139v94h895v-360h-96v221l-45 45h-312v-426h289v-90h-289v-463h326l45 45v230h98v-369h-708v94h94l45 45v267h-371l-131 -275l37 -37h160zM637 500v573h-53l-273 -573h326zM717 1352l143 297q29 70 92 69q35 0 59 -24q23 -24 23 -64
q0 -41 -49 -80l-235 -223z" />
    <glyph glyph-name="aeacute" unicode="&#x1fd;" 
d="M164 227q0 -78 51 -121t125 -43q135 0 264 107q-53 106 -59 229h-45q-336 -4 -336 -172zM884 801q-95 0 -162 -87t-79 -225l453 7v12q-12 129 -64 211t-148 82zM908 -29q-163 0 -261 133q-147 -133 -315 -133q-121 0 -199 67t-78 187q0 258 457 262h35q8 111 55 207
q-51 115 -188 115q-94 0 -178 -49q22 -6 38 -28t16 -54t-26 -56t-68 -24t-68 27t-26 71q0 84 96 142t216 59q164 0 241 -119q99 119 239 119t224 -139t84 -346l-561 -11q8 -143 79 -238q72 -95 190 -95t225 131l59 -66q-123 -162 -286 -162zM856 1438q34 0 58 -24t24 -64
t-49 -80l-236 -223l-32 24l143 297q29 70 92 70z" />
    <glyph glyph-name="Oslashacute" unicode="&#x1fe;" 
d="M883 1630q0 -41 -49 -80l-236 -223l-33 25l144 297q29 70 92 69q35 0 59 -24t23 -64zM1151 581q0 -261 -143 -435t-379 -175q-166 0 -293 95l-127 -177l-74 52l133 184q-162 175 -162 449t144 448t379 174q186 0 323 -117l113 158l74 -51l-125 -172q137 -172 137 -433z
M629 74q193 0 303 145t108 355q0 210 -90 348l-555 -772q103 -76 234 -76zM629 1094q-193 0 -303 -146t-109 -368q0 -223 115 -367l559 780q-106 101 -262 101z" />
    <glyph glyph-name="oslashacute" unicode="&#x1ff;" 
d="M793 1438q35 0 59 -24t22 -64q0 -40 -49 -80l-235 -223l-33 24l143 297q29 70 93 70zM1100 438q0 -201 -134 -334t-337 -133q-137 0 -246 64l-125 -158l-70 53l123 156q-153 133 -153 339t134 339t337 133q143 0 260 -72l123 158l69 -55l-123 -158q142 -131 142 -332z
M629 66q158 0 261 106t103 260t-98 258l-453 -577q83 -47 187 -47zM629 803q-158 -1 -261 -107q-104 -106 -104 -264t109 -266l454 582q-87 55 -198 55z" />
    <glyph glyph-name="Scommaaccent" unicode="&#x218;" 
d="M685 68q134 0 220 66t86 179q0 154 -194 203l-297 74q-158 42 -235 106t-77 197t109 218t278 85q219 0 343 -174l24 14v131h100v-376h-84q-113 309 -383 309q-123 0 -203 -58t-79 -146q0 -89 56 -132t169 -70l301 -76q276 -72 277 -301q0 -153 -114 -249t-298 -97
q-116 1 -224 57t-161 142l-25 -14v-156h-98v408h84q57 -168 174 -254t251 -86zM504 -255q0 42 33 75t79 33t78 -34q33 -34 33 -79t-33 -88l-190 -238l-47 33l127 193q-35 8 -58 35q-22 28 -22 70z" />
    <glyph glyph-name="scommaaccent" unicode="&#x219;" 
d="M213 662q0 101 92 168t234 67q225 0 340 -145l22 8v108h92v-288h-78q-47 102 -149 165t-210 63t-174 -40q-65 -40 -65 -104q1 -64 47 -93t144 -49l299 -61q115 -25 173 -77t58 -161t-90 -181t-232 -71q-142 0 -241 46q-100 46 -158 118l-26 -16v-119h-92v307h86
q147 -246 409 -246q114 0 178 44q64 43 64 115t-42 102t-120 47l-289 57q-141 29 -207 82t-65 154zM506 -255q0 42 33 75t79 33t78 -34q33 -34 33 -79t-33 -88l-190 -238l-47 33l127 193q-35 8 -58 35q-22 28 -22 70z" />
    <glyph glyph-name="uni021A" unicode="&#x21a;" 
d="M106 1167h1045v-422h-96v283l-45 45h-328v-934l45 -45h240v-94h-676v94h239l45 45v934h-327l-45 -45v-283h-97v422zM516 -255q0 42 33 75t79 33t79 -34t33 -79t-33 -88l-191 -238l-47 33l127 193q-36 8 -58 36t-22 69z" />
    <glyph glyph-name="uni021B" unicode="&#x21b;" 
d="M90 774v94h256v316h103v-316h538v-94h-495l-46 -45v-315q0 -344 295 -344q190 0 320 184l65 -61q-147 -221 -385 -222q-179 -1 -287 103t-108 325v330l-45 45h-211zM614 -255q0 42 33 75t79 33t79 -34t33 -79t-33 -88l-191 -238l-47 33l127 193q-36 8 -58 36t-22 69z" />
    <glyph glyph-name="uni0237" unicode="&#x237;" 
d="M150 -96q0 57 32 95q33 38 80 38t77 -28q30 -27 30 -67t-28 -67t-71 -27q23 -70 94 -116t166 -47q139 0 225 93q85 93 85 283v668l-45 45h-471v94h614v-817q0 -225 -114 -341t-282 -116t-280 94t-112 216z" />
    <glyph glyph-name="circumflex" unicode="&#x2c6;" 
d="M629 1425q49 0 88 -55l203 -291l-41 -32l-250 231l-248 -231l-43 32l203 291q39 55 88 55z" />
    <glyph glyph-name="caron" unicode="&#x2c7;" 
d="M629 1047q-53 0 -88 55l-203 291l43 32l248 -233l250 233l41 -32l-203 -291q-35 -55 -88 -55z" />
    <glyph glyph-name="breve" unicode="&#x2d8;" 
d="M629 1159q91 -1 159 59t86 160l74 -18q-26 -150 -108 -234t-211 -84t-212 84t-108 234l74 18q18 -100 87 -160t159 -59z" />
    <glyph glyph-name="dotaccent" unicode="&#x2d9;" 
d="M628 1094q-50 0 -84 34t-34 83q0 50 34 84t84 34t84 -34t34 -84t-34 -84q-34 -33 -84 -33z" />
    <glyph glyph-name="ring" unicode="&#x2da;" 
d="M850 1247q0 -94 -64 -157q-64 -64 -157 -64t-157 64t-64 157t63 157t157 64t158 -64t64 -157zM762 1248q0 60 -37 98t-96 38t-97 -37q-36 -39 -36 -99t36 -99t96 -39t97 39t37 99z" />
    <glyph glyph-name="ogonek" unicode="&#x2db;" 
d="M518 -471q-80 0 -123 44t-43 117q0 74 66 156t227 234l60 -53q-154 -150 -206 -213q-53 -64 -53 -110t22 -68t56 -21q86 0 181 100l49 -69q-113 -117 -236 -117z" />
    <glyph glyph-name="tilde" unicode="&#x2dc;" 
d="M891 1315h94q0 -109 -55 -177t-144 -69q-57 0 -112 39q-56 39 -104 77t-92 38t-79 -41t-34 -107h-93q0 109 56 177t135 67q80 0 173 -77t141 -77t81 41t33 109z" />
    <glyph glyph-name="hungarumlaut" unicode="&#x2dd;" 
d="M498 1438q36 0 58 -24t22 -64t-48 -80l-235 -223l-33 24l141 297q33 70 95 70zM860 1438q35 0 59 -24q23 -24 23 -64t-49 -80l-236 -223l-32 24l143 297q29 70 92 70z" />
    <glyph glyph-name="uni0326" unicode="&#x326;" 
d="M537 -255q0 42 32 75q33 33 79 33t79 -34t33 -79t-33 -88l-190 -238l-48 33l127 193q-35 8 -57 36t-22 69z" />
    <glyph glyph-name="Wgrave" unicode="&#x1e80;" 
d="M803 1073v94h436v-94h-104l-136 -1073h-202l-166 782l-166 -782h-207l-133 1073h-107v94h443v-94h-195l-30 -37l112 -936h49l164 781h139l166 -781h49l111 936l-29 37h-194zM377 1631q0 40 22 64q23 24 58 23q61 0 94 -69l141 -297l-33 -25l-235 223q-47 41 -47 81z" />
    <glyph glyph-name="wgrave" unicode="&#x1e81;" 
d="M385 1351q0 39 23 63t57 24q61 0 94 -70l141 -297l-32 -24l-236 223q-47 41 -47 81zM809 774v94h397v-94h-100l-154 -774h-180l-143 557l-144 -557h-180l-153 774h-101v94h402v-94h-168l-25 -31l121 -657h43l139 561h135l140 -561h43l120 657l-24 31h-168z" />
    <glyph glyph-name="Wacute" unicode="&#x1e82;" 
d="M803 1073v94h436v-94h-104l-136 -1073h-202l-166 782l-166 -782h-207l-133 1073h-107v94h443v-94h-195l-30 -37l112 -936h49l164 781h139l166 -781h49l111 936l-29 37h-194zM883 1630q0 -41 -49 -80l-236 -223l-33 25l144 297q29 70 92 69q35 0 59 -24t23 -64z" />
    <glyph glyph-name="wacute" unicode="&#x1e83;" 
d="M809 774v94h397v-94h-100l-154 -774h-180l-143 557l-144 -557h-180l-153 774h-101v94h402v-94h-168l-25 -31l121 -657h43l139 561h135l140 -561h43l120 657l-24 31h-168zM795 1438q35 0 59 -24t23 -64q0 -40 -50 -80l-235 -223l-33 24l143 297q29 70 93 70z" />
    <glyph glyph-name="Wdieresis" unicode="&#x1e84;" 
d="M803 1073v94h436v-94h-104l-136 -1073h-202l-166 782l-166 -782h-207l-133 1073h-107v94h443v-94h-195l-30 -37l112 -936h49l164 781h139l166 -781h49l111 936l-29 37h-194zM417 1352q-48 0 -83 34t-35 80q0 47 35 81t83 34t82 -34q33 -34 33 -81t-33 -81
q-34 -33 -82 -33zM842 1350q-49 0 -83 34t-34 81q0 48 34 82t83 34t83 -34q33 -34 33 -82t-33 -82q-34 -33 -83 -33z" />
    <glyph glyph-name="wdieresis" unicode="&#x1e85;" 
d="M809 774v94h397v-94h-100l-154 -774h-180l-143 557l-144 -557h-180l-153 774h-101v94h402v-94h-168l-25 -31l121 -657h43l139 561h135l140 -561h43l120 657l-24 31h-168zM417 1100q-48 0 -83 34t-35 80t35 81q35 34 83 34t82 -34q33 -34 33 -81q0 -46 -34 -80t-81 -34z
M842 1098q-49 0 -83 34t-34 82t34 81q34 34 83 34t83 -34q33 -34 33 -82q0 -47 -34 -81t-82 -34z" />
    <glyph glyph-name="Ygrave" unicode="&#x1ef2;" 
d="M377 1631q0 40 22 64q23 24 58 23q61 0 94 -69l141 -297l-33 -25l-235 223q-47 41 -47 81zM967 94v-94h-676v94h239l45 45v299l-428 635h-127v94h480v-94h-168l-37 -37l340 -510l336 510l-37 37h-168v94h471v-94h-127l-428 -635v-299l45 -45h240z" />
    <glyph glyph-name="ygrave" unicode="&#x1ef3;" 
d="M408 1351q0 39 22 63t57 24q61 0 95 -70l141 -297l-33 -24l-235 223q-47 41 -47 81zM86 -221q0 53 33 89t78 36t75 -27t31 -66q-1 -39 -25 -63t-63 -27q18 -47 92 -47t126 69t151 261l-400 770h-114v94h438v-94h-160l-29 -35l320 -635l319 635l-28 35h-160v94h430v-94
h-115l-419 -813q-104 -203 -180 -289t-172 -86t-162 54t-66 139z" />
    <glyph glyph-name="endash" unicode="&#x2013;" 
d="M297 508v108h664v-108h-664z" />
    <glyph glyph-name="emdash" unicode="&#x2014;" 
d="M113 508v108h1032v-108h-1032z" />
    <glyph glyph-name="quoteleft" unicode="&#x2018;" 
d="M770 878q0 -54 -40 -96t-99 -41q-59 0 -101 42q-41 41 -41 97t41 111l254 359l64 -41l-182 -301q48 -10 76 -43t28 -87z" />
    <glyph glyph-name="quoteright" unicode="&#x2019;" 
d="M487 1174q0 54 40 96q39 42 99 41q60 0 101 -42q41 -41 41 -97t-41 -111l-254 -359l-63 41l182 301q-47 10 -76 43t-29 87z" />
    <glyph glyph-name="quotesinglbase" unicode="&#x201a;" 
d="M487 132q0 54 40 95q39 41 99 41t101 -42t41 -97t-41 -111l-254 -358l-63 41l182 301q-47 10 -76 43t-29 87z" />
    <glyph glyph-name="quotedblleft" unicode="&#x201c;" 
d="M981 878q0 -54 -40 -96t-99 -41q-59 0 -101 42q-41 41 -41 97t41 111l254 359l64 -41l-182 -301q47 -10 75 -43t29 -87zM528 878q0 -54 -40 -96t-99 -41q-59 0 -100 42q-41 41 -41 97t41 111l254 359l63 -41l-182 -301q48 -10 76 -43t28 -87z" />
    <glyph glyph-name="quotedblright" unicode="&#x201d;" 
d="M754 1174q0 54 40 96t99 41q59 0 100 -42q41 -41 41 -97t-41 -111l-254 -359l-63 41l182 301q-47 10 -76 43q-28 33 -28 87zM301 1174q0 54 40 96t99 41q58 0 100 -42q42 -41 42 -97t-41 -111l-254 -359l-64 41l183 301q-47 10 -76 43t-29 87z" />
    <glyph glyph-name="quotedblbase" unicode="&#x201e;" 
d="M754 132q0 54 40 95t99 41t100 -42t41 -97t-41 -111l-254 -358l-63 41l182 301q-47 10 -76 43q-28 33 -28 87zM301 132q0 54 40 95t99 41q58 0 100 -42t42 -97t-41 -111l-254 -358l-64 41l183 301q-47 10 -76 43t-29 87z" />
    <glyph glyph-name="dagger" unicode="&#x2020;" 
d="M676 924v-428h-94v428h-281v92h281v264h94v-264h280v-92h-280z" />
    <glyph glyph-name="daggerdbl" unicode="&#x2021;" 
d="M676 690v-194h-94v194h-281v90h281v215h-281v92h281v193h94v-193h280v-92h-280v-215h280v-90h-280z" />
    <glyph glyph-name="bullet" unicode="&#x2022;" 
d="M629 936q150 0 254 -102t104 -249t-104 -249t-254 -102t-253 102q-104 102 -104 248t104 250q104 102 253 102z" />
    <glyph glyph-name="ellipsis" unicode="&#x2026;" 
d="M354 110q0 -54 -39 -94t-93 -39q-54 -1 -92 39t-38 94t38 93t92 39t93 -39t39 -93zM762 110q0 -54 -39 -94t-93 -39q-54 -1 -92 39t-38 94t38 93t92 39t93 -39t39 -93zM1169 110q0 -54 -39 -94t-93 -39q-54 -1 -92 39t-38 94t38 93t92 39t93 -39t39 -93z" />
    <glyph glyph-name="perthousand" unicode="&#x2030;" 
d="M204 1196q85 0 145 -60q61 -60 61 -146t-60 -144q-60 -60 -146 -60q-84 0 -144 60t-60 144q0 85 59 146q60 60 145 60zM713 1192l63 -37l-713 -1180l-63 37zM204 1122q-54 0 -92 -39t-38 -94t38 -92t93 -37t94 37t39 92t-40 94t-94 39zM560 389q86 0 146 -60
q60 -61 60 -145t-60 -143t-146 -59t-144 59q-59 59 -60 143q0 84 60 144t144 61zM561 53q55 0 94 38t39 93q0 54 -39 94t-94 40t-94 -40q-39 -38 -39 -94t39 -93q39 -38 94 -38zM1052 389q85 0 145 -60q60 -61 60 -145t-60 -143t-145 -59t-145 59q-59 59 -59 143t59 145
q60 60 145 60zM1053 53q55 0 94 38t39 93q0 54 -39 94t-94 40t-95 -39q-38 -39 -38 -95t39 -93q39 -38 94 -38z" />
    <glyph glyph-name="guilsinglleft" unicode="&#x2039;" 
d="M582 455l233 -289l-82 -66l-287 355l287 354l82 -66z" />
    <glyph glyph-name="guilsinglright" unicode="&#x203a;" 
d="M676 455l-234 288l82 66l287 -354l-287 -355l-82 66z" />
    <glyph glyph-name="fraction" unicode="&#x2044;" 
d="M1100 1192l61 -53l-1001 -1159l-62 53z" />
    <glyph glyph-name="uni2070" unicode="&#x2070;" 
d="M629 524q111 0 174 94t63 237q0 141 -63 237t-174 96t-174 -95t-63 -237t62 -238q64 -94 175 -94zM295 856q0 180 92 300t242 120q149 0 241 -120t92 -300t-92 -300t-242 -120t-241 120q-92 120 -92 300z" />
    <glyph glyph-name="uni2074" unicode="&#x2074;" 
d="M993 647h-166l-39 -37v-153h-90v153l-36 37h-396v109q98 110 206 278t165 307l92 -28q-106 -252 -369 -586h338v201h90v-201h205v-80z" />
    <glyph glyph-name="uni2075" unicode="&#x2075;" 
d="M817 709q0 61 -42 105t-120 44q-109 0 -174 -82h-116l20 479h492v-88h-410l-16 -311q76 86 204 86t191 -70t63 -174t-82 -191q-81 -87 -197 -131t-263 -63l-17 84q467 72 467 312z" />
    <glyph glyph-name="uni2076" unicode="&#x2076;" 
d="M831 715q0 82 -58 138t-142 56q-83 0 -141 -56t-58 -138t57 -137q57 -56 141 -56t143 56q58 56 58 137zM640 993q120 0 202 -79q82 -80 82 -198t-86 -199t-207 -81q-166 0 -248 129q-49 78 -49 191q0 198 140 358t382 225l27 -82q-332 -90 -432 -362q69 98 189 98z" />
    <glyph glyph-name="uni2077" unicode="&#x2077;" 
d="M389 987h-86v268h651v-100l-417 -846l-82 37l405 823l-436 2l-35 -38v-146z" />
    <glyph glyph-name="uni2078" unicode="&#x2078;" 
d="M629 438q-129 0 -215 67t-86 179q0 74 48 128t122 73v10q-60 19 -102 69t-42 123q0 109 78 176t197 67t197 -68q78 -66 77 -175q0 -73 -41 -123t-100 -69v-10q72 -19 120 -73t48 -128q0 -114 -86 -180t-215 -66zM629 524q90 0 147 42q58 42 58 119t-56 118t-149 41
t-149 -41t-56 -118t58 -119t147 -42zM629 934q82 0 132 41t50 115t-50 113q-50 40 -132 40t-132 -40q-51 -40 -51 -114q0 -75 50 -115t133 -40z" />
    <glyph glyph-name="uni2079" unicode="&#x2079;" 
d="M426 997q0 -82 58 -138t142 -56t142 56q57 56 57 138q0 83 -57 139t-141 56t-143 -56q-58 -57 -58 -139zM627 1276q166 0 247 -129q49 -76 50 -191q0 -215 -148 -394t-393 -247l-29 82q182 49 297 164t158 256q-77 -98 -191 -98t-199 79q-85 80 -85 198t86 199t207 81z
" />
    <glyph glyph-name="uni2080" unicode="&#x2080;" 
d="M866 91q0 141 -63 237t-174 96t-174 -95t-63 -237t62 -237q64 -95 175 -95t174 94t63 237zM295 92q0 180 92 300t242 120q149 0 241 -120t92 -300t-92 -300t-242 -120t-241 120q-92 120 -92 300z" />
    <glyph glyph-name="uni2081" unicode="&#x2081;" 
d="M682 492v-682l37 -35h244v-82h-666v82h256l37 35v591l-238 -161l-49 73l260 179h119z" />
    <glyph glyph-name="uni2082" unicode="&#x2082;" 
d="M645 512q111 0 179 -65t67 -166q0 -57 -37 -115t-71 -89q-34 -30 -105 -85l-268 -217h393l41 35v122h84v-239h-623v106l311 256q70 57 97 81t53 66q27 42 27 93t-43 89t-115 38q-147 0 -258 -162l-72 53q55 87 142 143t198 56z" />
    <glyph glyph-name="uni2083" unicode="&#x2083;" 
d="M350 408v84h533v-109l-262 -213l57 4q111 0 173 -63t62 -169t-83 -194q-82 -88 -200 -133t-268 -66l-18 84q477 80 477 318q0 67 -45 111t-126 44t-156 -49l-45 62l339 289h-438z" />
    <glyph glyph-name="uni2084" unicode="&#x2084;" 
d="M993 -117h-166l-39 -37v-153h-90v153l-36 37h-396v107q98 112 206 280t165 308l92 -29q-106 -252 -369 -586h338v201h90v-201h205v-80z" />
    <glyph glyph-name="uni2085" unicode="&#x2085;" 
d="M817 -55q0 61 -42 105t-120 44q-109 0 -174 -82h-116l20 480h492v-89h-410l-16 -311q76 86 204 86t191 -70t63 -174t-82 -191q-81 -87 -197 -131t-263 -63l-17 84q467 72 467 312z" />
    <glyph glyph-name="uni2086" unicode="&#x2086;" 
d="M831 -49q0 82 -58 138t-142 56q-83 0 -141 -56t-58 -138t57 -138q57 -57 141 -57t143 56q58 56 58 139zM640 229q120 -1 202 -79t82 -197t-86 -200t-207 -81q-166 0 -248 129q-49 78 -49 191q0 198 140 358t382 225l27 -81q-332 -90 -432 -363q69 98 189 98z" />
    <glyph glyph-name="uni2087" unicode="&#x2087;" 
d="M389 223h-86v269h651v-101l-417 -846l-82 37l405 824l-436 2l-35 -39v-146z" />
    <glyph glyph-name="uni2088" unicode="&#x2088;" 
d="M629 -326q-129 0 -215 67t-86 179q0 74 48 128t122 73v10q-60 19 -102 69t-42 124q0 110 78 176t197 66t197 -68q78 -66 77 -174q0 -74 -41 -124t-100 -69v-10q72 -19 120 -73t48 -128q0 -114 -86 -180t-215 -66zM629 -240q90 0 147 42q58 42 58 119t-56 118t-149 41
t-149 -41t-56 -118t58 -119t147 -42zM629 170q82 0 132 41t50 115t-50 114t-132 39q-82 0 -132 -40q-51 -39 -51 -113t50 -115t133 -41z" />
    <glyph glyph-name="uni2089" unicode="&#x2089;" 
d="M426 233q0 -82 58 -138t142 -56t142 56q57 56 57 138q0 83 -57 139t-141 56t-143 -56q-58 -57 -58 -139zM627 512q166 0 247 -129q49 -76 50 -190q0 -215 -148 -395t-393 -247l-29 82q182 49 297 164t158 256q-77 -98 -191 -98t-199 79q-85 80 -85 198t86 199t207 81z
" />
    <glyph glyph-name="Euro" unicode="&#x20ac;" 
d="M236 583q0 30 4 83h-150l16 79h146q41 201 177 326q135 125 319 125t292 -96t107 -226q0 -50 -31 -82t-74 -32q-42 0 -72 28t-30 66t23 62t55 22q-14 60 -83 108t-175 48q-154 0 -256 -96t-137 -253h450l-14 -79h-451q-4 -53 -4 -83t4 -83h426l-14 -82h-399
q35 -158 133 -251t250 -93q203 0 356 196l65 -73q-184 -225 -421 -226q-197 0 -327 123t-169 324h-203l17 82h174q-4 53 -4 83z" />
    <glyph glyph-name="uni2117" unicode="&#x2117;" 
d="M629 1151q237 0 405 -167q168 -166 168 -402t-168 -403t-406 -167t-405 167q-168 167 -168 403t168 402t406 167zM629 82q207 0 357 147t149 353q0 206 -150 354q-151 150 -357 150t-355 -150q-148 -150 -148 -354t148 -353q149 -147 356 -147zM670 545h-131v-185l28 -28
h107v-66h-293v66h57l29 28v435l-29 28h-57v64h289q246 0 245 -172q1 -170 -245 -170zM539 821v-209h129q168 0 168 104t-168 105h-129z" />
    <glyph glyph-name="trademark" unicode="&#x2122;" 
d="M96 1167h459v-196h-63v112l-27 25h-105v-389l25 -25h94v-59h-305v59h90l27 25v389h-105l-26 -25v-112h-64v196zM750 1100v-381l22 -25h43v-59h-184v59h31l26 25v364l-26 25h-31v59h176l84 -288l84 288h174v-59h-35l-22 -25v-364l22 -25h35v-59h-182v59h39l26 25v381h-22
l-84 -283h-74l-82 283h-20z" />
    <glyph glyph-name="uni2153" unicode="&#x2153;" 
d="M705 528l-29 31l381 418l76 -78zM381 1264v-512h182v-74h-457v74h191v430l-166 -113l-43 68l186 127h107zM549 434l29 -31l-381 -417l-76 77zM737 293v76h393v-99l-159 -135q92 -2 138 -47t46 -119q0 -123 -117 -195t-288 -96l-17 74q340 59 340 217q0 47 -31 76
q-30 29 -84 29t-114 -39l-39 53l246 205h-314z" />
    <glyph glyph-name="uni2154" unicode="&#x2154;" 
d="M737 293v76h393v-99l-159 -135q92 -2 138 -47t46 -119q0 -123 -117 -195t-288 -96l-17 74q340 59 340 217q0 47 -31 76q-30 29 -84 29t-114 -39l-39 53l246 205h-314zM549 434l29 -31l-381 -417l-76 77zM705 528l-29 31l381 418l76 -78zM532 1124q0 -68 -43 -118
q-43 -49 -118 -103l-191 -143h391v-74h-481v94l223 176q49 36 72 56q57 48 57 97q0 48 -27 73q-28 25 -73 24q-108 0 -190 -119l-62 50q104 150 252 149q90 0 140 -47t50 -115z" />
    <glyph glyph-name="uni215B" unicode="&#x215b;" 
d="M950 -260q-94 0 -158 50t-65 132q0 53 34 93t83 53v10q-41 12 -69 48t-27 85q0 82 57 132t145 50t146 -50t59 -132q0 -49 -29 -85t-69 -48v-10q51 -12 84 -52t33 -94q0 -82 -65 -132t-159 -50zM811 -76q0 -52 41 -80t99 -28t99 28q40 29 40 80t-38 80t-100 29t-102 -29
q-39 -29 -39 -80zM1073 213q0 49 -34 77t-88 27q-54 1 -89 -27t-35 -77t35 -77t88 -28t88 28t35 77zM549 434l29 -31l-381 -417l-76 77zM381 1264v-512h182v-74h-457v74h191v430l-166 -113l-43 68l186 127h107zM705 528l-29 31l381 418l76 -78z" />
    <glyph glyph-name="uni215C" unicode="&#x215c;" 
d="M705 528l-29 31l381 418l76 -78zM549 434l29 -31l-381 -417l-76 77zM119 1178v75h395v-98l-160 -135q90 -2 136 -47t47 -119q0 -123 -117 -196t-289 -95l-14 74q338 59 338 217q0 47 -30 76q-30 28 -85 28t-115 -38l-37 53l244 205h-313zM950 -260q-94 0 -158 50t-65 132
q0 53 34 93t83 53v10q-41 12 -69 48t-27 85q0 82 57 132t145 50t146 -50t59 -132q0 -49 -29 -85t-69 -48v-10q51 -12 84 -52t33 -94q0 -82 -65 -132t-159 -50zM811 -76q0 -52 41 -80t99 -28t99 28q40 29 40 80t-38 80t-100 29t-102 -29q-39 -29 -39 -80zM1073 213
q0 49 -34 77t-88 27q-54 1 -89 -27t-35 -77t35 -77t88 -28t88 28t35 77z" />
    <glyph glyph-name="uni215D" unicode="&#x215d;" 
d="M705 528l-29 31l381 418l76 -78zM549 434l29 -31l-381 -417l-76 77zM438 854q0 41 -28 69q-29 28 -78 27q-74 0 -111 -59h-102l14 362h365v-79h-295l-10 -205q51 57 143 57t138 -51t46 -121q0 -123 -113 -196q-114 -72 -284 -97l-17 76q332 53 332 217zM811 -76
q0 -52 41 -80t99 -28t99 28q40 29 40 80t-38 80t-100 29t-102 -29q-39 -29 -39 -80zM950 -260q-94 0 -158 50t-65 132q0 53 34 93t83 53v10q-41 12 -69 48t-27 85q0 82 57 132t145 50t146 -50t59 -132q0 -49 -29 -85t-69 -48v-10q51 -12 84 -52t33 -94q0 -82 -65 -132
t-159 -50zM1073 213q0 49 -34 77t-88 27q-54 1 -89 -27t-35 -77t35 -77t88 -28t88 28t35 77z" />
    <glyph glyph-name="uni215E" unicode="&#x215e;" 
d="M549 434l29 -31l-381 -417l-76 77zM705 528l-29 31l381 418l76 -78zM180 1176v-136h-76v215h486v-92l-311 -602l-72 33l297 582h-324zM1073 213q0 49 -34 77t-88 27q-54 1 -89 -27t-35 -77t35 -77t88 -28t88 28t35 77zM811 -76q0 -52 41 -80t99 -28t99 28q40 29 40 80
t-38 80t-100 29t-102 -29q-39 -29 -39 -80zM950 -260q-94 0 -158 50t-65 132q0 53 34 93t83 53v10q-41 12 -69 48t-27 85q0 82 57 132t145 50t146 -50t59 -132q0 -49 -29 -85t-69 -48v-10q51 -12 84 -52t33 -94q0 -82 -65 -132t-159 -50z" />
    <glyph glyph-name="minus" unicode="&#x2212;" 
d="M180 506v94h897v-94h-897z" />
    <glyph glyph-name="approxequal" unicode="&#x2248;" 
d="M838 594q-78 0 -209 59t-205 60q-121 0 -277 -142v111q141 131 273 131q78 0 209 -60t205 -61q121 0 276 142v-111q-139 -129 -272 -129zM838 289q-78 0 -209 59t-205 60q-121 0 -277 -142v111q141 131 273 131q78 0 209 -60t205 -61q121 0 276 141v-110
q-139 -129 -272 -129z" />
    <glyph glyph-name="notequal" unicode="&#x2260;" 
d="M178 362v89h320l159 208h-479v91h549l184 237l62 -45l-148 -192h254v-91h-323l-162 -208h485v-89h-553l-192 -249l-64 45l158 204h-250z" />
    <glyph glyph-name="lessequal" unicode="&#x2264;" 
d="M225 70v92h795v-92h-795zM225 639v102l795 351v-105l-686 -297l686 -297v-104z" />
    <glyph glyph-name="greaterequal" unicode="&#x2265;" 
d="M1032 70h-794v92h794v-92zM1032 639l-794 -350v104l686 297l-686 297v105l794 -351v-102z" />
    <glyph glyph-name="i.html" 
d="M516 1211q0 50 34 84t83 34t84 -34t35 -84t-35 -84q-35 -33 -84 -33t-83 34t-34 83zM1094 94v-94h-875v94h352l45 45v590l-45 45h-352v94h496v-729l45 -45h334z" />
    <glyph glyph-name="braceleft.cap" 
d="M174 510v100h113q195 0 194 144q0 14 -28 160q-29 146 -29 196q0 121 79 195q79 73 204 73t219 -47l-27 -92q-90 43 -181 43t-140 -46t-50 -130q0 -41 29 -184t29 -168q0 -78 -48 -126t-114 -67q66 -18 114 -67t48 -125q0 -25 -29 -169t-29 -186q0 -84 50 -130t141 -46
q92 0 180 45l27 -94q-100 -47 -222 -47t-201 74t-79 194q0 48 29 196t28 163q0 141 -194 141h-113z" />
    <glyph glyph-name="braceright.cap" 
d="M1083 510h-112q-195 0 -195 -141q0 -13 29 -161t29 -198q0 -120 -79 -194t-201 -74t-222 47l26 94q88 -45 180 -45t142 46q49 46 49 130q0 42 -29 186t-28 169q0 76 48 125t114 67q-66 19 -114 67t-48 126q0 25 28 168q29 143 29 184q0 84 -49 130t-141 46t-181 -43
l-26 92q94 47 219 47t204 -74t79 -194q0 -50 -29 -196t-29 -160q0 -143 195 -144h112v-100z" />
    <glyph glyph-name="bracketleft.cap" 
d="M489 1278v-1428h447v-94h-543v1616h543v-94h-447z" />
    <glyph glyph-name="bracketright.cap" 
d="M768 1278h-446v94h542v-1616h-542v94h446v1428z" />
    <glyph glyph-name="parenleft.cap" 
d="M451 565q0 -240 127 -429t337 -316l-55 -82q-514 311 -514 827t514 828l58 -80q-211 -127 -339 -317t-128 -431z" />
    <glyph glyph-name="parenright.cap" 
d="M807 565q0 240 -128 430t-339 318l57 80q514 -311 514 -827t-514 -828l-55 82q211 127 338 316t127 429z" />
    <glyph glyph-name="guillemotleft.cap" 
d="M569 289l-82 -66l-286 355l286 354l82 -66l-233 -288zM997 289l-82 -66l-286 355l286 354l82 -66l-233 -288z" />
    <glyph glyph-name="guillemotright.cap" 
d="M688 289l234 289l-234 288l82 66l287 -354l-287 -355zM260 289l234 289l-234 288l82 66l287 -354l-287 -355z" />
    <glyph glyph-name="guilsinglleft.cap" 
d="M582 578l233 -289l-82 -66l-287 355l287 354l82 -66z" />
    <glyph glyph-name="guilsinglright.cap" 
d="M676 578l-234 288l82 66l287 -354l-287 -355l-82 66z" />
    <glyph glyph-name="questiondown.cap" 
d="M801 1060q0 -54 -37 -92t-91 -38t-92 38t-38 92t38 92t92 38t91 -38t37 -92zM614 793h115v-207q-205 -48 -302 -110t-97 -177t91 -175t220 -60t214 50t93 113q-94 23 -94 95q0 38 30 66t76 28t80 -36q35 -36 35 -93q0 -135 -123 -225t-305 -91q-182 0 -304 87
q-122 88 -122 236q-1 148 103 229t290 128v142z" />
    <glyph glyph-name="exclamdown.cap" 
d="M628 -23q-44 0 -72 33t-24 78l66 690h59l68 -690q4 -47 -24 -79q-29 -32 -73 -32zM629 1196q53 0 91 -38t38 -92t-38 -92t-91 -38t-91 38t-38 92t38 92t91 38z" />
    <glyph glyph-name="slash.cap" 
d="M145 -186l877 1525l90 -47l-876 -1525z" />
    <glyph glyph-name="bar.cap" 
d="M682 1339v-1575h-107v1575h107z" />
    <glyph glyph-name="backslash.cap" 
d="M1112 -186l-90 -47l-877 1525l91 47z" />
    <glyph glyph-name="a.ord" 
d="M311 1034q0 72 87 114t205 42q117 0 183 -60t66 -165v-260q0 -86 59 -87q33 0 84 52l45 -62q-70 -76 -134 -76t-101 35t-43 97q-123 -131 -281 -132q-90 0 -144 43t-54 119t56 117t171 68l250 63v25q0 145 -174 145q-100 0 -162 -31q39 -10 39 -48q0 -73 -74 -75
q-33 0 -55 20t-23 56zM492 610q129 0 268 135v127l-230 -63q-152 -29 -151 -109q0 -42 32 -66t81 -24z" />
    <glyph glyph-name="b.ord" 
d="M438 551h-194v84h84l24 22v678l-24 23h-95v84h205v-393q80 139 244 139q135 0 223 -94t88 -234t-88 -235q-88 -94 -223 -95q-164 0 -244 140v-119zM676 616q100 0 162 70q61 70 61 173t-61 173t-162 70q-160 0 -238 -164v-158q78 -164 238 -164z" />
    <glyph glyph-name="c.ord" 
d="M858 891q-36 -1 -58 23t-22 51t16 44t40 19q-40 76 -164 76t-202 -69t-77 -173q0 -104 69 -174q68 -70 198 -70t239 97l51 -68q-129 -117 -292 -117t-262 94t-99 234q0 138 104 234q105 96 243 96t219 -60t81 -145q0 -39 -24 -65t-60 -27z" />
    <glyph glyph-name="d.ord" 
d="M639 1442h266v-785l25 -22h84v-84h-195v117q-80 -139 -244 -140q-133 0 -222 96t-89 235t88 233t223 94q81 0 145 -38t99 -99v286l-22 23h-158v84zM582 1102q-100 0 -162 -70t-62 -174t62 -174t162 -70q157 0 237 166v158q-78 164 -237 164z" />
    <glyph glyph-name="e.ord" 
d="M648 530q-159 0 -256 94t-97 235t96 235t247 94t238 -102t87 -250h-576q8 -92 77 -154q68 -62 194 -64q126 0 229 95l49 -66q-129 -117 -288 -117zM632 1104q-89 0 -157 -53t-86 -140h467q-16 87 -75 140q-60 53 -149 53z" />
    <glyph glyph-name="f.ord" 
d="M543 1141h268v-82h-229l-39 -37v-350l39 -37h229v-84h-537v84h146l39 37v350l-39 37h-146v82h185q0 149 88 235t215 86q128 0 198 -53t70 -131q0 -43 -26 -70q-26 -26 -63 -26q-39 0 -63 22t-24 50t19 48t51 21q-36 68 -142 68q-106 1 -172 -63t-67 -187z" />
    <glyph glyph-name="g.ord" 
d="M776 563h-373q-63 -41 -63 -98t75 -91t203 -34t205 39q78 39 78 98q0 86 -125 86zM770 651q102 0 162 -43t59 -133q0 -90 -103 -153q-104 -64 -272 -64t-268 54t-100 144t92 148q-45 37 -45 96q0 84 94 129q-57 57 -57 145t71 151t165 63t159 -31q61 121 182 121
q59 0 103 -35t43 -80q0 -45 -23 -69q-24 -24 -56 -23t-54 21t-21 52q0 32 35 50q-14 12 -39 12q-68 0 -115 -88q64 -59 64 -150q0 -92 -72 -154t-171 -62t-159 34q-66 -29 -65 -75q0 -58 72 -60h319zM752 971q0 59 -46 97t-117 38t-117 -38t-46 -97t46 -99t117 -38
q71 0 117 39t46 98z" />
    <glyph glyph-name="h.ord" 
d="M584 635v-84h-340v84h90l39 37v649l-39 37h-90v84h215v-383q33 53 94 91t148 38t151 -60t63 -174v-282l39 -37h90v-84h-337v84h86l38 37v256q0 174 -146 174t-226 -150v-280l37 -37h88z" />
    <glyph glyph-name="i.ord" 
d="M539 1406q0 40 27 68q28 28 68 28t68 -28t27 -69q0 -41 -28 -68q-27 -27 -67 -27t-68 28q-27 28 -27 68zM961 635v-84h-627v84h244l36 37v375l-36 36h-244v84h366v-495l39 -37h222z" />
    <glyph glyph-name="j.ord" 
d="M694 1406q0 40 28 68t66 28t68 -28q29 -28 29 -68t-29 -68t-68 -28q-38 0 -66 28t-28 68zM287 489q0 47 26 79q27 32 68 32t65 -22t25 -56q-1 -32 -23 -54t-55 -22q17 -46 63 -76t126 -30t135 63t55 191v453l-37 36h-319v84h442v-579q0 -158 -82 -242t-204 -84t-204 68
t-81 159z" />
    <glyph glyph-name="k.ord" 
d="M584 635v-84h-342v84h90l39 37v649l-39 37h-99v84h222v-604l321 227l-8 18h-96v84h332v-84h-74l-275 -190l228 -258h155v-84h-274v84l-180 209l-129 -88v-84l39 -37h90z" />
    <glyph glyph-name="l.ord" 
d="M961 635v-84h-627v84h244l36 37v649l-36 37h-244v84h366v-770l39 -37h222z" />
    <glyph glyph-name="m.ord" 
d="M1047 551h-185v461q0 38 -18 64t-56 26q-74 0 -116 -119v-432h-82v461q0 38 -18 64t-56 26q-74 0 -117 -119v-432h-178v84h72l22 22v404l-22 22h-72v84h178v-94q15 51 51 83t85 32q111 0 133 -113q41 113 143 113q61 0 97 -40t36 -114v-377l25 -22h78v-84z" />
    <glyph glyph-name="n.ord" 
d="M584 635v-84h-340v84h90l39 37v375l-39 36h-90v84h215v-108q33 53 94 91t148 38t151 -60t63 -174v-282l39 -37h90v-84h-337v84h86l38 37v256q0 174 -146 174t-226 -150v-280l37 -37h88z" />
    <glyph glyph-name="o.ord" 
d="M872 859q0 103 -68 173q-69 70 -175 70t-175 -70t-69 -173t69 -172t175 -69t175 69q68 69 68 172zM289 860q0 140 97 234q96 94 242 94t243 -94t97 -234t-96 -234q-98 -96 -243 -96t-243 96t-97 234z" />
    <glyph glyph-name="p.ord" 
d="M618 362v-83h-374v83h84l24 23v676l-24 22h-84v84h194v-118q80 139 244 139q135 0 223 -94t88 -234t-88 -235q-88 -94 -223 -95q-164 1 -244 140v-285l23 -23h157zM676 616q100 0 162 70q61 70 61 173t-61 173t-162 70q-160 0 -238 -164v-158q78 -164 238 -164z" />
    <glyph glyph-name="q.ord" 
d="M264 859q0 141 88 235t223 94q164 0 244 -139v118h195v-84h-84l-25 -22v-676l25 -23h84v-83h-375v83h158l22 23v285q-80 -139 -244 -140q-135 0 -223 94t-88 235zM582 1102q-100 0 -162 -70t-62 -173t62 -173t162 -70q160 0 237 164v158q-78 164 -237 164z" />
    <glyph glyph-name="r.ord" 
d="M999 1038q-1 -58 -29 -92q-28 -35 -68 -35q-40 1 -62 21t-23 53t19 51t42 18t31 -5q0 10 -6 16q-10 43 -80 43q-119 0 -295 -213v-223l37 -37h260v-84h-565v84h143l39 37v375l-39 36h-143v84h268v-170q152 190 293 191q88 0 133 -46t45 -104z" />
    <glyph glyph-name="s.ord" 
d="M328 1018q0 74 64 122q65 48 163 48q156 0 238 -94l20 6v67h80v-211h-68q-37 70 -108 112q-72 42 -144 42q-73 0 -113 -25t-40 -65t30 -58q30 -17 95 -32l219 -47q82 -17 124 -55t42 -118t-66 -129q-66 -50 -178 -51q-174 0 -266 109l-23 -12v-76h-80v225h76
q106 -168 289 -168q72 0 115 28t43 79q0 68 -109 86l-209 43q-98 20 -146 60t-48 114z" />
    <glyph glyph-name="t.ord" 
d="M246 1083v84h182v224h90v-224h365v-84h-330l-37 -36v-205q0 -225 193 -226q127 0 225 129l57 -53q-111 -162 -282 -162q-131 0 -206 73t-75 226v218l-37 36h-145z" />
    <glyph glyph-name="u.ord" 
d="M678 1167h213v-495l37 -37h90v-84h-213v108q-33 -53 -94 -91t-149 -38t-152 60t-64 174v283l-37 36h-90v84h213v-374q0 -176 148 -177q150 0 225 150v281l-37 36h-90v84z" />
    <glyph glyph-name="v.ord" 
d="M721 1083v84h309v-84h-80l-278 -532h-84l-281 532h-80v84h318v-84h-94l-25 -26l207 -410l207 410l-25 26h-94z" />
    <glyph glyph-name="w.ord" 
d="M756 1083v84h288v-84h-67l-107 -532h-147l-94 379l-94 -379h-150l-104 532h-68v84h293v-84h-113l-20 -22l80 -436h28l90 379h119l90 -379h29l78 436l-21 22h-110z" />
    <glyph glyph-name="x.ord" 
d="M1030 635v-84h-344v84h105l16 22l-180 166l-181 -166l19 -22h104v-84h-342v84h82l262 231l-245 217h-84v84h340v-84h-97l-18 -20l162 -152l162 152l-17 20h-96v84h336v-84h-84l-246 -217l264 -231h82z" />
    <glyph glyph-name="y.ord" 
d="M406 258q-76 0 -127 42q-50 42 -50 100t26 86q26 30 63 30q36 0 60 -22t23 -54q0 -63 -71 -67q10 -41 65 -41t92 48t105 179l-277 524h-82v84h318v-84h-96l-23 -26l207 -410l209 410l-25 26h-96v84h309v-84h-80l-292 -557q-76 -144 -129 -206t-129 -62z" />
    <glyph glyph-name="z.ord" 
d="M868 807h84v-256h-655v94l522 442h-383l-37 -36v-131h-84v247h617v-94l-524 -442h423l37 37v139z" />
    <glyph glyph-name="zero.dnom" 
d="M866 399q0 141 -63 235t-174 95q-111 0 -174 -94q-63 -93 -63 -235t62 -236q64 -94 175 -94t174 94t63 235zM295 399q0 180 92 300t242 120q149 0 241 -120t92 -300t-92 -300q-92 -119 -242 -119t-241 120q-92 120 -92 299z" />
    <glyph glyph-name="one.dnom" 
d="M682 799v-680l37 -37h244v-82h-666v82h256l37 37v590l-238 -162l-49 74l260 178h119z" />
    <glyph glyph-name="two.dnom" 
d="M645 819q111 -1 179 -65t67 -166q0 -58 -37 -116t-71 -88t-105 -85l-270 -217h395l41 35v123h84v-240h-623v106l311 256q70 57 97 81t53 66q27 42 27 93t-43 89t-115 38q-147 0 -258 -164l-72 56q55 88 142 143t198 55z" />
    <glyph glyph-name="three.dnom" 
d="M348 713v86h535v-109l-262 -213l57 4q111 0 173 -63t62 -169t-83 -194q-82 -88 -200 -133t-268 -65l-18 84q479 82 479 317q0 68 -46 112t-125 44t-158 -49l-45 61l339 287h-440z" />
    <glyph glyph-name="four.dnom" 
d="M993 190h-168l-37 -36v-154h-90v154l-36 36h-398v109q100 111 208 278t165 308l92 -29q-111 -260 -369 -584h338v199h90v-199h205v-82z" />
    <glyph glyph-name="five.dnom" 
d="M817 252q0 61 -42 105t-120 44q-109 0 -174 -84h-116l20 482h492v-88h-410l-16 -312q72 86 202 86q130 1 193 -69t63 -161q0 -247 -343 -354q-92 -30 -201 -44l-17 84q469 72 469 311z" />
    <glyph glyph-name="six.dnom" 
d="M831 258q0 82 -58 138t-142 56q-83 0 -141 -56t-58 -138t57 -137t141 -55t143 55q58 55 58 137zM640 537q120 0 202 -79t82 -198t-86 -200t-207 -80q-166 0 -248 129q-49 78 -49 190q0 197 140 357t382 227l27 -82q-334 -92 -432 -363q69 99 189 99z" />
    <glyph glyph-name="seven.dnom" 
d="M387 530h-84v269h651v-101l-417 -845l-82 36l405 824h-436l-37 -37v-146z" />
    <glyph glyph-name="eight.dnom" 
d="M629 -18q-129 0 -215 66t-86 179q0 74 47 128t121 73v10q-58 18 -100 68t-42 125q0 109 78 175t197 66t197 -66t77 -175q0 -74 -41 -124t-100 -69v-10q74 -18 121 -72t47 -129q0 -113 -86 -179t-215 -66zM629 68q88 0 146 42q59 42 59 118t-56 118q-56 41 -149 41
t-149 -41t-56 -118q0 -76 58 -118t147 -42zM629 477q82 0 132 41t50 114q0 74 -50 114t-132 40t-132 -41q-51 -41 -51 -113t50 -114q50 -41 133 -41z" />
    <glyph glyph-name="nine.dnom" 
d="M426 541q0 -83 58 -139t142 -56t142 56q57 56 57 138t-57 138q-57 55 -141 55q-85 0 -143 -55t-58 -137zM627 819q166 0 247 -129q49 -76 50 -190q0 -218 -150 -396t-393 -245l-27 82q182 49 298 165t157 254q-77 -98 -191 -98t-199 79t-85 198t86 199t207 81z" />
  </font>
</defs>
</svg>
