<?xml version="1.0" standalone="no"?>
<!DOCTYPE svg PUBLIC "-//W3C//DTD SVG 1.1//EN" "http://www.w3.org/Graphics/SVG/1.1/DTD/svg11.dtd" >
<svg>
<metadata>
Created by FontForge 20090914 at Fri Feb 24 12:39:17 2012
 By root
Converted by ALLTYPE
</metadata>
<defs>
<font id="Garamond-Bold" horiz-adv-x="0" >
  <font-face 
    font-family="Garamond Regular"
    font-weight="700"
    font-style="italic"
    font-stretch="normal"
    units-per-em="1000"
    panose-1="0 0 0 0 0 0 0 0 0 0"
    ascent="800"
    descent="-200"
    x-height="418"
    cap-height="668"
    bbox="-85 -225 1083 736"
    underline-thickness="50"
    underline-position="-55"
    slope="23853"
    unicode-range="U+0020-U+F002"
  />
<missing-glyph 
 />
    <glyph glyph-name=".notdef" 
 />
    <glyph glyph-name="glyph1" 
 />
    <glyph glyph-name="space" horiz-adv-x="278" 
 />
    <glyph glyph-name="exclam" unicode=" " horiz-adv-x="318" 
 />
    <glyph glyph-name="exclam" unicode="&#xa0;" horiz-adv-x="318" 
 />
    <glyph glyph-name="quotedbl" unicode="!" horiz-adv-x="272" 
d="M212 46q0 -13 -4.5 -23t-12.5 -18q-8 -7 -18 -11t-21 -4h-40q-12 0 -22 4t-18 11q-8 8 -12 17.5t-4 21.5q0 11 4 21t12 18t18 12.5t22 4.5l40 1q11 -1 21 -5.5t18 -12.5t12.5 -17.5t4.5 -20.5v1zM129 193h-27l-17 171q-1 14 -2.5 29t-3.5 31l-2 32l-2 32q-1 15 -2.5 30.5
t-1.5 31.5q-1 16 -1 31.5v31.5v5v5q1 9 4 18t8 17t13.5 12.5t20.5 4.5l40 1q11 -1 19.5 -5.5t13.5 -12.5t8 -17t4 -19v-4v-4v-17v-15q-1 -8 -1 -16v-16q-1 -16 -1.5 -31.5t-1.5 -30.5q-1 -8 -1.5 -16t-0.5 -16q-1 -8 -1.5 -16t-1.5 -16q-1 -16 -2.5 -31.5t-3.5 -30.5
l-17 -169h-40v0v0z" />
    <glyph glyph-name="numbersign" unicode="&#x22;" horiz-adv-x="373" 
d="M109 399h-35l-21 269h40h78l-22 -269h-40v0v0zM260 399h-35l-21 269h40h77l-21 -269h-40v0v0z" />
    <glyph glyph-name="dollar" unicode="#" horiz-adv-x="607" 
d="M411 250l-36 -250h-40h-37l34 250h-72l-35 -250h-40h-39l34 250h-140v38h145l15 106h-136v39h141l33 235h40h40l-32 -235h71l34 235h40h37l-32 -235h131v-39h-136l-15 -106h129v-38h-134v0v0zM352 394h-71l-15 -106h71l15 106v0z" />
    <glyph glyph-name="percent" unicode="$" horiz-adv-x="507" 
d="M246 736h32v-59l2 -1h-40l2 1h40h2h2q5 -1 12 -1.5t16 -2.5q9 -1 18 -2.5t19 -3.5q14 -4 27.5 -9.5t25.5 -11.5q12 -7 18 -15t6 -17q0 -5 -2 -9.5t-7 -9.5q-4 -4 -8.5 -7.5t-9.5 -5.5q-1 0 -2 -0.5l-1 -0.5q-1 -1 -2 -1h-2h-6h-40q-3 -1 -6.5 1.5t-8.5 6.5q-4 5 -10 10.5
l-13 11.5l-14.5 10.5t-16.5 9.5v0v0q-1 0 -1 0.5v0.5v-241q2 -3 4.5 -4.5t5.5 -3.5l2 -2t3 -1q1 -1 2.5 -2t2.5 -2q27 -17 52.5 -37t47.5 -43q23 -22 34.5 -51.5t11.5 -64.5q0 -38 -12 -69.5t-36 -56.5t-53.5 -40t-64.5 -22v-65h-40h-32v64q-18 1 -35.5 2.5t-34.5 4.5
q-17 2 -33.5 7.5t-32.5 15.5q-1 0 -2 0.5t-1 1.5q-1 0 -2 0.5t-2 1.5t-2 1.5t-1 1.5q-1 0 -2 0.5t-2 1.5q-5 4 -9.5 8.5t-9.5 8.5q-4 5 -6 10.5t-2 11.5q0 5 2 9t6 8t8.5 7t8.5 5q1 0 2 0.5t2 1.5l1 0.5t2 0.5h2t2 1h1h2l2 2h40q4 -2 8.5 -5t9.5 -9t12 -12.5l14 -13.5
q8 -7 17.5 -14t20.5 -13q3 -1 6.5 -2.5t7.5 -3.5v272q-29 16 -54.5 35t-48.5 40q-22 21 -34 50t-14 66q0 34 10 64t31 55q21 26 48.5 41t61.5 20v63h40v0v0zM278 50q7 4 13 10t12 13q14 17 20.5 35t6.5 39q0 23 -7.5 42.5t-21.5 35.5q-5 6 -11 12t-12 11v-198v0zM206 616
l-10 -10.5t-9 -11.5q-11 -15 -16.5 -32t-5.5 -37t6 -36.5t18 -29.5l8.5 -8.5l8.5 -8.5v174v0z" />
    <glyph glyph-name="ampersand" unicode="%" horiz-adv-x="832" 
d="M798 205q0 -10 -0.5 -18.5t-1.5 -16.5q-1 -9 -1.5 -17.5t-2.5 -16.5q-5 -28 -15.5 -53t-25.5 -48q-15 -22 -38 -33t-54 -11h-40q-31 0 -54 11t-38 33q-16 23 -26.5 48t-15.5 53q-1 8 -2.5 16.5t-2.5 17.5q-1 8 -1 16.5v16.5v16t1 17q1 8 2.5 17t2.5 18q5 27 15.5 52
t26.5 47q15 23 38 34.5t54 11.5l40 1q30 -1 53 -12.5t39 -34.5q15 -22 25.5 -47t15.5 -52q2 -9 2.5 -18t1.5 -17q1 -9 1.5 -17t0.5 -15v1zM688 206v5.5v8.5q-1 4 -1 9v11q-1 12 -1.5 24.5t-2.5 25.5q-3 18 -8 35t-13 32q-4 9 -10 15.5t-13 10.5q-7 -4 -13 -10.5t-11 -15.5
q-7 -15 -12 -32t-7 -35q-2 -13 -3.5 -25.5t-1.5 -24.5v-21v-15v-16v-21t1.5 -24t3.5 -25q2 -19 7 -36t12 -32q5 -9 10.5 -15.5t12.5 -9.5q8 3 14 9.5t10 15.5q8 15 13 32t8 36q2 13 2.5 25t1.5 24v11.5t1 9.5v9v7v2v0zM536 635h42l-48 -123l-195 -512h-40h-42l48 123
l195 512h40v0v0zM351 429v-9.5t-1 -8.5q0 -5 -0.5 -9t-0.5 -9q0 -4 -0.5 -8.5t-1.5 -8.5q0 -5 -0.5 -9t-1.5 -9q-6 -27 -16.5 -52t-25.5 -48q-15 -22 -38 -33.5t-53 -11.5l-40 1q-30 -1 -53 10.5t-38 33.5q-16 23 -26 48t-15 52q-1 5 -2 9t-2 9q0 4 -1 8.5t-1 8.5
q-1 9 -1 17.5v16.5v16t1 17q0 5 0.5 9t1.5 9q1 4 1.5 8.5t1.5 8.5q5 27 15.5 52.5t25.5 48.5t38 34.5t54 11.5l40 1q30 -1 53 -12.5t39 -34.5q15 -23 25.5 -48.5t15.5 -52.5q1 -4 1.5 -8.5t0.5 -8.5q1 -5 1.5 -9t0.5 -9q1 -9 1.5 -17t0.5 -15v1zM241 430v6v8q-1 5 -1 10v11
q-1 12 -1.5 24.5t-2.5 25.5q-3 18 -8 35t-13 32q-4 9 -10 15.5t-13 10.5q-7 -4 -13 -10.5t-11 -15.5q-7 -15 -12 -32t-7 -35q-2 -13 -3.5 -25.5t-1.5 -24.5v-21.5v-15.5v-16v-21t1.5 -24t3.5 -25q2 -19 7 -36t12 -32q5 -9 10.5 -15.5t12.5 -9.5q8 3 14 9.5t10 15.5
q8 15 13 32t8 36q2 13 2.5 25t1.5 24v11.5t1 9.5v9v7v2v0z" />
    <glyph glyph-name="quotesingle" unicode="&#x26;" horiz-adv-x="709" 
d="M426 342v30h40q7 -2 13.5 -3t13.5 -1q6 -1 13 -1.5t14 -0.5q5 -1 10.5 -1h10.5h21.5t20.5 1l24.5 2l25.5 2l40 1v-29q-22 -3 -40.5 -10t-32.5 -18q-15 -12 -28.5 -25.5t-25.5 -28.5q-2 -3 -4 -5.5t-4 -4.5q-2 -3 -4 -5.5t-4 -4.5l-8 -10.5l-8 -10.5l-8 -10l-8 -10
q-4 -6 -8 -11l-8 -10l-8 -10.5l-8 -10.5q5 -4 9.5 -10t9.5 -12q2 -3 4.5 -6t5.5 -6q3 -4 6 -7l6 -6q9 -12 19.5 -22.5t21.5 -19.5q3 -3 6 -5t7 -4q3 -2 6 -3.5t6 -2.5q3 1 5.5 2t4.5 2q8 4 14.5 8.5t13.5 8.5l6 5q1 0 2 0.5t2 1.5l1 0.5t2 1.5l40 1l18 -19q-1 -4 -2.5 -6
t-3.5 -4l-2 -2l-1 -1l-2 -2l-2 -2q-10 -12 -21.5 -22.5t-24.5 -19.5q-13 -8 -27.5 -13t-29.5 -5h-40q-19 0 -35.5 6t-30.5 16q-14 12 -27 25t-24 27q-2 2 -3.5 4t-3.5 5q-2 2 -3.5 4t-3.5 4q-15 -17 -32 -32t-35 -29q-21 -15 -44 -22.5t-49 -7.5h-40q-34 0 -63 11t-52 33
q-24 23 -35.5 52t-11.5 63q0 29 9.5 54t28.5 44q20 20 41 37t45 31q2 1 4 2.5t4 2.5q1 1 2 1.5l3 1.5q1 0 2 0.5t2 1.5q-11 11 -21.5 24t-19.5 27q-10 14 -14.5 30t-4.5 32q0 26 10 46t29 36q20 15 41.5 23t45.5 8l40 1h1h2q20 -2 39 -9t36 -21t26 -32.5t9 -41.5
q0 -20 -7 -37.5t-21 -31.5q-13 -15 -28 -27t-32 -21l4 -4l4 -4q2 -3 4 -5l4 -4q5 -4 9.5 -8t8.5 -8l4 -3l4 -4l25.5 -25.5l25.5 -25.5q7 -7 13.5 -14.5t12.5 -15.5q2 2 3.5 4t3.5 4q1 2 3 4.5t3 4.5l8 10l8 10t7.5 10.5l7.5 11.5q2 3 3 6t3 6l2.5 5t2.5 6q2 5 3.5 10.5
t2.5 11.5q0 7 -3 12t-8 8q-6 3 -12 4.5t-12 2.5h-3.5t-3.5 1h-2.5h-3.5h-6h-5v2v0zM214 282q-11 -9 -22 -19t-21 -21q-13 -15 -19 -32t-6 -37q0 -24 7.5 -44.5t23.5 -37.5q12 -13 27 -21.5t33 -11.5q15 2 29 7.5t27 13.5q18 11 33.5 23.5t28.5 26.5l-38 43.5l-39 42.5
q-5 6 -10.5 11.5l-10.5 10.5l-21.5 22.5t-21.5 21.5v1zM262 373q5 4 10 9t9 11q8 11 12.5 24t4.5 29v2v2q-1 12 -4.5 24t-11.5 23q-4 7 -10.5 11.5t-14.5 7.5q-6 -2 -11.5 -6t-10.5 -9q-9 -9 -13 -19.5t-4 -23.5q0 -15 4 -28t12 -24q6 -10 13.5 -18l14.5 -16v1z" />
    <glyph glyph-name="parenleft" unicode="'" horiz-adv-x="258" 
d="M205 46q0 -13 -4.5 -23t-12.5 -18q-8 -7 -18 -11t-21 -4h-40q-12 0 -22 4t-18 11q-8 8 -12 17.5t-4 21.5q0 11 4 21t12 18t18 12.5t22 4.5l40 1q11 -1 21 -5.5t18 -12.5t12.5 -17.5t4.5 -20.5v1z" />
    <glyph glyph-name="parenright" unicode="(" horiz-adv-x="326" 
d="M293 714l19 -21q-40 -49 -69.5 -102.5t-46.5 -112.5q-18 -59 -26.5 -119t-8.5 -122v-20.5t1 -21.5v-10.5t1 -10.5q0 -6 0.5 -11.5t1.5 -10.5q4 -49 14 -96.5t26 -93.5q16 -47 40 -89t57 -79l-20 -19h-40q-46 46 -82.5 99.5t-64.5 115.5q-28 60 -41.5 123t-13.5 128
q0 14 1 28l2 29q1 8 2 15t2 15q1 7 2.5 14.5t3.5 14.5q11 50 29 99t45 96q26 47 57.5 87t68.5 73v2h40v0z" />
    <glyph glyph-name="asterisk" unicode=")" horiz-adv-x="326" 
d="M33 -225l-20 21q41 47 70 100t46 110q17 59 26 119.5t9 121.5v8v9q-1 4 -1 8.5v8.5v8v9q-1 4 -1 8.5v8.5q-4 51 -13.5 101t-25.5 99q-16 50 -41 94t-58 84l20 21h40q45 -47 81.5 -101t64.5 -116q27 -61 41 -125t14 -129v-10.5t-1 -10.5q0 -6 -0.5 -11.5t-0.5 -10.5
l-2 -20.5t-3 -21.5q-9 -55 -26.5 -107t-44.5 -103t-60.5 -94t-73.5 -79h-40v0v0z" />
    <glyph glyph-name="plus" unicode="*" horiz-adv-x="457" 
d="M201 517l10 5h40q3 -5 6 -8.5l7 -8.5l6.5 -8.5l7.5 -9.5q2 -4 4.5 -7.5t5.5 -6.5q2 -4 4.5 -7.5l4.5 -6.5q5 -7 8 -13.5l6 -12.5q3 -7 4.5 -13t1.5 -11q0 -7 -3 -12t-8 -10q-5 -4 -11 -6t-12 -2l-40 1q-7 -1 -12.5 1.5t-8.5 6.5q-4 5 -6 10.5l-4 11.5l-1 6l-1 6
q-2 10 -3.5 21.5t-2.5 23.5l-2 24t-1 24v2v0zM209 532l7 -9l-6 -10.5t-7 -11.5l-4 -6l-4 -6q-2 -4 -4.5 -7t-4.5 -6l-8 -10l-8 -10q-2 -3 -4 -5t-4 -5q-3 -2 -5 -3.5t-4 -3.5q-4 -4 -8 -7t-8 -5t-8 -3t-7 -1l-40 1q-7 -1 -12 1.5t-10 6.5q-4 5 -6.5 10.5t-2.5 11.5
q0 9 4.5 17t14.5 15t21 13t23 11q4 2 8 3.5t8 2.5q3 2 7 3.5t8 2.5q8 2 14 4.5t10 3.5v2h40v0zM225 541v11q3 0 6.5 1.5t7.5 2.5q4 2 8 3.5t8 2.5l6 2t7 2q2 1 3.5 1.5t3.5 1.5q1 0 3 0.5t4 1.5q4 1 7.5 2t7.5 2q3 1 6.5 2t7.5 2q8 2 14 2.5t12 0.5l40 1q7 -1 13 -3.5
t10 -7.5q5 -4 7.5 -10t2.5 -13t-3 -13t-9 -11q-6 -4 -12 -6t-13 -2l-40 1q-5 -1 -11 -0.5t-14 1.5q-4 1 -7.5 1.5t-6.5 1.5q-4 1 -7.5 1.5t-7.5 1.5q-3 0 -6 0.5t-6 1.5l-6 2l-6 2l-8 2l-8 2t-7.5 2t-6.5 2v2v0zM216 567l-7 -9h-40q-4 -1 -10.5 0.5l-14.5 3.5q-7 2 -15.5 5
l-16.5 6q-13 5 -24 10t-22 11q-10 6 -15 13.5t-5 15.5q0 6 2.5 11.5t6.5 10.5q5 5 10 7.5t11 2.5l40 1l8 -2t8 -3t8 -5l8 -6l4 -4t5 -4l4 -4l4 -4t4 -4.5t5 -4.5q2 -2 4 -4.5t4 -4.5q5 -6 9.5 -12l8.5 -11q5 -5 8.5 -9.5t7.5 -7.5v1zM209 573l-13 2v74v3.5v5.5v6t1 6
q0 8 2 15t6 14q3 6 9.5 9.5t16.5 3.5l40 1q6 -1 12 -3t10 -6q5 -4 7.5 -9.5t2.5 -12.5q0 -6 -1.5 -12t-3.5 -12q-2 -7 -5 -13.5t-7 -13.5q-1 -1 -2 -3t-1 -3q-1 -2 -2 -3.5t-2 -3.5q-2 -4 -4 -7l-4 -6q-3 -5 -6 -9.5t-6 -9.5q-3 -4 -5.5 -8l-4.5 -7l-40 1v1v0z" />
    <glyph glyph-name="comma" unicode="+" horiz-adv-x="541" 
d="M22 363h205v194h40h44v-194h206v-43h-206v-193h-40h-44v193h-205v43v0v0z" />
    <glyph glyph-name="hyphen" unicode="," horiz-adv-x="258" 
d="M26 -142l3 29q17 1 33 5.5t31 13.5t22.5 23.5t7.5 34.5q0 8 -2.5 13.5t-7.5 7.5q-5 3 -11 5l-12 4l-4 1l-4 1q-7 2 -14.5 5t-13.5 7q-7 5 -10 14.5t-3 23.5q0 12 4.5 22t13.5 17q9 8 19 11.5t22 3.5l40 1q17 -1 29.5 -7.5t21.5 -18.5q9 -13 14.5 -26.5t8.5 -27.5v-4t1 -3
v-3.5v-3.5v-2.5t1 -3.5v-2v-2q0 -34 -11 -59.5t-32 -43.5t-48 -27t-59 -9h-40v0v0z" />
    <glyph glyph-name="period" unicode="-" horiz-adv-x="255" 
d="M40 252h215v-65h-40h-215v65h40v0v0z" />
    <glyph glyph-name="slash" unicode="." horiz-adv-x="258" 
d="M205 46q0 -13 -4.5 -23t-12.5 -18q-8 -7 -18 -11t-21 -4h-40q-12 0 -22 4t-18 11q-8 8 -12 17.5t-4 21.5q0 11 4 21t12 18t18 12.5t22 4.5l40 1q11 -1 21 -5.5t18 -12.5t12.5 -17.5t4.5 -20.5v1z" />
    <glyph glyph-name="zero" unicode="/" horiz-adv-x="456" 
d="M396 714l41 -19l-183 -409l-227 -511h-40l-42 19l183 408l228 512h40v0v0z" />
    <glyph glyph-name="one" unicode="0" horiz-adv-x="507" 
d="M473 311q0 -14 -0.5 -28t-2.5 -28q-1 -15 -3 -29.5t-5 -28.5q-8 -39 -23 -74.5t-37 -67.5t-54.5 -47.5t-74.5 -15.5h-40q-44 0 -77 16t-54 49q-22 33 -36 70t-22 77q-3 15 -4.5 30t-3.5 30q-1 15 -1.5 29.5t-0.5 27.5q0 12 0.5 25.5t1.5 28.5l4 29t5 30q8 39 22 75t36 69
t55 49.5t76 16.5l40 1q43 -1 75 -18t54 -50q21 -33 36 -69.5t23 -76.5q3 -16 5 -32t3 -32q2 -16 2.5 -30t0.5 -27v1zM346 305v8v11.5v13.5q-1 8 -1 16v17q-1 18 -2.5 37t-3.5 38q-4 31 -12 59.5t-19 54.5q-10 20 -23 33t-30 17q-16 -4 -29 -15.5t-22 -30.5
q-12 -24 -20.5 -49.5t-13.5 -54.5q-4 -19 -6 -38t-3 -37t-1.5 -32t-0.5 -25v-26t1 -35q0 -19 2 -39.5t5 -41.5q5 -31 12.5 -58.5t19.5 -53.5q9 -20 22.5 -32t30.5 -17q17 4 30.5 15t22.5 30q12 24 20.5 50.5t12.5 54.5q2 18 3.5 36t2.5 36q1 17 1.5 31.5t0.5 24.5v2v0z" />
    <glyph glyph-name="two" unicode="1" horiz-adv-x="507" 
d="M307 659l20 -13q-2 -29 -3.5 -56t-1.5 -54v-27v-27v-27.5v-27.5v-264v-27q0 -31 3 -51.5t9 -31.5q6 -10 25 -16t50 -7v-30h-40h-31.5t-32.5 1q-5 0 -10 0.5t-9 0.5q-5 0 -10 0.5t-10 0.5q-2 0 -4 -0.5t-4 -0.5h-5h-4h-16h-16q-8 -1 -16 -1.5t-16 -0.5h-16h-16h-40v32h40
l6 -1h-40l5 1q27 2 44.5 8t24.5 14t10.5 27.5t3.5 50.5v31v394q-2 -2 -4.5 -3t-4.5 -2q-3 -2 -5.5 -3t-4.5 -2q-3 -1 -6 -2.5t-6 -2.5q-4 -2 -7 -3l-6 -2l-40 1l-16 31q20 8 40.5 18.5l40.5 21.5l40 23t39 25v2h40v0z" />
    <glyph glyph-name="three" unicode="2" horiz-adv-x="507" 
d="M80 490l-27 16q13 25 32 49t44 46q25 21 53.5 32t59.5 11l40 1q34 -1 61.5 -12.5t48.5 -34.5q21 -22 31.5 -50.5t10.5 -62.5v-6t-1 -6q0 -4 -0.5 -7t-0.5 -6q-1 -3 -1.5 -6t-0.5 -6q-1 -3 -1.5 -6t-1.5 -6q-7 -24 -18 -48t-27 -47t-33 -45t-35 -42l-17.5 -19l-16.5 -18
l-15.5 -17l-14.5 -16l-110 -117l6 -1q2 -1 3.5 -1h3.5h4l70 1h40q2 -2 4.5 -2h5.5h6h6v0h1v0v0q15 1 30 4t29 7q18 6 32 19.5t24 33.5l40 1l27 -7l-56 -122h-40h-20.5h-21.5h-20.5h-20.5h-10.5h-10.5h-10.5h-10.5h-0.5h-0.5h-0.5h-0.5h-16h-16h-16h-16h-40h-31.5h-30.5h-16
h-16h-8h-7h-8h-8l-12 24q12 11 26.5 26l30.5 32l32.5 36l32.5 38l29.5 35l28.5 37l27.5 38t25.5 38q7 11 13 22.5l12 23.5q6 11 11.5 22.5t9.5 22.5q9 23 13.5 44t4.5 41q0 22 -7.5 40t-22.5 33q-11 11 -24.5 18t-27.5 9q-15 -2 -28.5 -9.5t-24.5 -18.5q-15 -15 -27.5 -31
t-22.5 -33l-40 1v1v0z" />
    <glyph glyph-name="four" unicode="3" horiz-adv-x="507" 
d="M97 524l-26 20q14 20 31.5 37.5t36.5 32.5q20 15 43.5 22.5t51.5 7.5l40 1q28 -1 51.5 -11t42.5 -30q20 -20 29.5 -44t9.5 -52q0 -30 -9 -53t-27 -40q-18 -16 -39 -30t-45 -25q35 -2 62.5 -14t48.5 -33q21 -22 31.5 -50.5t10.5 -63.5q0 -46 -16.5 -83.5t-49.5 -66.5
t-71 -43t-82 -14h-40q-6 0 -12 0.5t-14 1.5q-4 0 -8 0.5t-7 1.5q-4 1 -8 1.5t-8 1.5q-15 1 -28 6.5t-25 12.5q-12 8 -18 19t-6 25q0 7 2.5 13t8.5 11t12 8t13 4l40 1h1h2q5 -1 9.5 -2.5t8.5 -3.5q2 -1 4 -3t5 -3q2 -2 4 -3.5t4 -3.5t4 -4.5t4 -4.5l4 -4t5 -4
q6 -7 13.5 -13.5t15.5 -11.5q5 -4 10 -5.5t10 -3.5q16 3 28.5 11t22.5 21q12 17 21 36t13 40q0 3 0.5 6t1.5 7q0 3 0.5 6t0.5 6t0.5 6t0.5 7q1 3 1 6v6q0 35 -10.5 62t-31.5 46q-21 18 -48.5 27.5t-61.5 9.5l-21 2v30q29 1 55 10t48 24q23 15 34.5 39t11.5 57
q0 20 -6.5 37.5t-19.5 31.5q-10 11 -21.5 17.5t-25.5 9.5q-11 -2 -21.5 -6.5t-18.5 -12.5q-12 -10 -23 -22.5t-20 -26.5l-40 1v1v0z" />
    <glyph glyph-name="five" unicode="4" horiz-adv-x="507" 
d="M276 633l79 30h40v-416h70v-58h-70v-189h-40h-73v189h-259l6 62l247 382v0v0zM282 247v269l-172 -269h172v0v0z" />
    <glyph glyph-name="six" unicode="5" horiz-adv-x="507" 
d="M179 638h249l-17 -70h-206l-25 -136q1 -1 2 -1h2h1h2l40 1q44 -1 81.5 -13.5t67.5 -36.5q30 -25 45.5 -61t15.5 -83q0 -51 -16.5 -94.5t-48.5 -79.5q-32 -37 -74 -54.5t-95 -17.5h-40h-5.5h-5.5q-3 1 -6 1h-6t-6 0.5t-6 0.5q-4 1 -7 1.5t-6 0.5q-13 2 -25 5.5t-23 10.5
q-10 6 -16 16t-6 23q0 8 3 15t9 13t13 9t15 3l40 1q6 -1 11.5 -2.5t10.5 -4.5l10 -6t10 -7l6 -5q1 -2 1.5 -2.5t1.5 -0.5q1 -1 2 -1.5t2 -1.5q6 -6 13.5 -11l14.5 -10q4 -2 8.5 -4t8.5 -3q17 3 31.5 12t26.5 23q15 19 25.5 40t16.5 43q1 5 1.5 10.5t1.5 11.5q1 5 1.5 10.5
t0.5 10.5q0 38 -11 68t-32 52q-18 18 -42.5 28.5t-55.5 13.5h-4t-4 -1q-2 0 -4 -0.5t-4 -0.5q-4 -1 -8.5 -2t-8.5 -1q-5 -1 -9 -2l-8 -2l-40 1l-8 9l48 281h40v0v0z" />
    <glyph glyph-name="seven" unicode="6" horiz-adv-x="507" 
d="M407 667l13 -23q-52 -31 -93 -66.5t-70 -76.5q-24 -34 -42 -74t-30 -87q2 1 3.5 2t2.5 2q2 1 3.5 2t2.5 2q15 10 33 15t38 5l40 1q35 -1 62 -14.5t47 -39.5t31 -54.5t14 -60.5v-2v-1v-2v-2v-5q0 -42 -13.5 -76.5t-40.5 -63.5q-27 -28 -61.5 -42t-75.5 -14h-40
q-46 0 -80 16t-55 49t-33 70t-14 77v4.5v4.5v4.5v5.5q0 71 24 137t72 127t103.5 105.5t118.5 72.5v2h40v0zM172 262q-1 -7 -1.5 -12t-0.5 -10q0 -2 -0.5 -4.5t-0.5 -4.5v-5.5v-4.5v-15.5t1 -16.5q0 -8 1.5 -16t2.5 -16q3 -24 10.5 -45t19.5 -41q10 -16 24.5 -26t33.5 -14
q18 4 32.5 13t24.5 24q14 20 20.5 42t6.5 47v4.5v4.5q-1 2 -1 4.5v4.5q-1 5 -1.5 10t-0.5 10q-4 23 -13.5 43t-23.5 39q-10 14 -24.5 23t-31.5 12q-10 -1 -18.5 -5t-16.5 -9q-13 -8 -23.5 -17.5t-19.5 -20.5l-40 1v1h40v0z" />
    <glyph glyph-name="eight" unicode="7" horiz-adv-x="507" 
d="M110 638h362l7 -13l-46 -113l-208 -512h-40h-73q4 7 8 15.5l8 17.5l8.5 16.5t8.5 17.5q1 3 2.5 6t2.5 6q2 2 3.5 5t2.5 6q2 3 3 6t3 6l2.5 5t2.5 6l203 459h-86l-55 -1q-22 -2 -40.5 -5.5t-32.5 -9.5q-15 -6 -26.5 -19.5t-19.5 -35.5l-40 1l-29 1l29 135h40v0v0z" />
    <glyph glyph-name="nine" unicode="8" horiz-adv-x="507" 
d="M325 344q24 -17 46.5 -36t43.5 -42q20 -22 30.5 -49t10.5 -59q0 -38 -14 -68.5t-41 -53.5q-28 -22 -60 -33t-68 -11h-40q-35 0 -66.5 9.5t-59.5 30.5t-42 50.5t-14 67.5q0 31 10 56.5t31 46.5q20 20 43.5 37.5t48.5 30.5l-6 5l-6 4q-21 13 -39.5 29t-33.5 33t-22.5 40.5
t-7.5 52.5q0 35 12 63.5t36 50.5q24 23 53 34t63 11l40 1q33 -1 61.5 -10t52.5 -27t36 -45t12 -62q0 -28 -8 -52t-24 -44q-16 -19 -35 -35t-43 -27v1zM231 287q-12 -11 -22.5 -22t-18.5 -24q-12 -18 -17.5 -38t-5.5 -43v-3v-4q2 -26 10 -48t24 -42q13 -16 28.5 -25.5
t34.5 -12.5q15 2 28.5 9t24.5 18q14 14 21.5 32t7.5 40q0 27 -9 50t-26 42t-36 36t-40 32l-0.5 0.5t-1.5 0.5t-1.5 0.5l-0.5 0.5v1zM276 378q8 7 16 15.5t15 18.5q10 15 15 32t5 36q0 25 -6.5 47t-19.5 41q-10 15 -24.5 24.5t-34.5 12.5q-13 -2 -24.5 -8t-22.5 -15
q-15 -12 -22 -27.5t-7 -35.5q0 -22 7.5 -41.5t22.5 -35.5t31 -30t34 -26q4 -2 7.5 -4.5t7.5 -4.5v1z" />
    <glyph glyph-name="colon" unicode="9" horiz-adv-x="507" 
d="M104 -17l-16 30q49 26 88.5 59t70.5 70q24 31 42.5 67.5t30.5 79.5q-1 -1 -2 -1.5t-2 -0.5q-1 -1 -2 -1.5t-2 -1.5q-16 -10 -33 -15t-36 -5l-40 1q-34 -1 -62.5 12t-51.5 40q-22 27 -33 57t-11 63q0 43 13 79.5t38 66.5q26 30 60.5 45.5t79.5 15.5l40 1q45 -1 78.5 -18
t55.5 -51q23 -34 35 -71t13 -78v-5v-5q0 -74 -24 -138.5t-72 -121.5t-102 -101t-116 -73h-40v0v0zM334 374v1t1 2v2.5v2.5v3.5t1 2.5v3.5v2.5v2t1 3v2.5v2.5v3v3v2.5v2.5v7.5v7.5q-1 4 -1 8v8q-1 8 -1.5 16t-2.5 17q-4 23 -12.5 45t-20.5 41q-10 16 -24.5 25t-33.5 12
q-17 -3 -30 -11.5t-23 -22.5q-12 -18 -18 -38t-8 -41q-1 -2 -1 -4v-4v-2v-1v-2v-2v-10.5t1 -11.5q0 -6 1.5 -11.5t2.5 -10.5q5 -21 14 -40.5t22 -36.5q11 -14 24 -22t29 -11q9 2 18 5.5t17 8.5q12 8 23 17.5t21 20.5v2v0z" />
    <glyph glyph-name="semicolon" unicode=":" horiz-adv-x="258" 
d="M205 46q0 -13 -4.5 -23t-12.5 -18q-8 -7 -18 -11t-21 -4h-40q-12 0 -22 4t-18 11q-8 8 -12 17.5t-4 21.5q0 11 4 21t12 18t18 12.5t22 4.5l40 1q11 -1 21 -5.5t18 -12.5t12.5 -17.5t4.5 -20.5v1zM205 362q0 -13 -4.5 -23t-12.5 -18t-18 -12t-21 -4l-40 1q-12 -1 -22 3
t-18 12t-12 18t-4 21t4 21t12 18t18 12.5t22 4.5l40 1q11 -1 21 -5.5t18 -12.5t12.5 -17.5t4.5 -20.5v1z" />
    <glyph glyph-name="less" unicode=";" horiz-adv-x="258" 
d="M26 -142l3 29q17 1 33 5.5t31 13.5t22.5 23.5t7.5 34.5q0 8 -2.5 13.5t-7.5 7.5q-5 3 -11 5l-12 4l-4 1l-4 1q-7 2 -14.5 5t-13.5 7q-7 5 -10 14.5t-3 23.5q0 12 4.5 22t13.5 17q9 8 19 11.5t22 3.5l40 1q17 -1 29.5 -7.5t21.5 -18.5q9 -13 14.5 -26.5t8.5 -27.5v-4t1 -3
v-3.5v-3.5v-2.5t1 -3.5v-2v-2q0 -34 -11 -59.5t-32 -43.5t-48 -27t-59 -9h-40v0v0zM196 363q0 -13 -4.5 -23.5t-12.5 -18.5t-18 -12t-21 -4l-40 1q-11 -1 -21 3t-18 12t-12 18t-4 22q0 11 4 21t12 18t18 12.5t21 4.5l40 1q11 -1 21 -5.5t18 -12.5t12.5 -17.5t4.5 -20.5v1z
" />
    <glyph glyph-name="equal" unicode="&#x3c;" horiz-adv-x="541" 
d="M497 614v-38l-311 -203l311 -209v-100h-40l-414 277v6l414 267h40v0v0z" />
    <glyph glyph-name="greater" unicode="=" horiz-adv-x="541" 
d="M62 292h455v-42h-40h-455v42h40v0v0zM62 433h455v-42h-40h-455v42h40v0v0z" />
    <glyph glyph-name="question" unicode="&#x3e;" horiz-adv-x="541" 
d="M43 64v38l312 203l-312 209v100h40l414 -277v-7l-414 -266h-40v0v0z" />
    <glyph glyph-name="at" unicode="?" horiz-adv-x="354" 
d="M214 46q0 -13 -4.5 -23t-12.5 -18q-8 -7 -18 -11t-21 -4h-40q-11 0 -21 4t-18 11q-9 8 -13 17.5t-4 21.5q0 11 4 21t13 18q8 8 18 12.5t21 4.5l40 1q11 -1 21 -5.5t18 -12.5t12.5 -17.5t4.5 -20.5v1zM129 204h-33v171h40l2 -1h-40l4 1q24 2 46 9.5t42 19.5t30 32t10 48v6
v6q-2 19 -9.5 38t-21.5 36q-10 13 -23 21t-29 11q-1 0 -2 -0.5t-2 -0.5q-2 0 -3 -0.5t-2 -0.5q-3 -1 -5.5 -2t-4.5 -1q-3 -1 -5.5 -1.5t-4.5 -1.5h-2h-40h-2h-1h-1q-4 -1 -7.5 1.5t-6.5 6.5q-4 5 -6.5 9.5t-4.5 10.5q-1 2 -1.5 3.5t-1.5 3.5q-1 1 -1.5 3t-0.5 3q-1 3 -1 6v5
v3q0 4 3 7.5t7 6.5q5 3 9.5 5t10.5 3h4.5h5.5h2t3 1h2h2l40 1h1h2q27 -2 53.5 -15t51.5 -38t43.5 -52t30.5 -56q4 -10 7 -20t5 -19q2 -10 3.5 -19t1.5 -18v-2v-1v-2v-2l-1 -5q-1 -12 -4.5 -23t-8.5 -22q-6 -10 -13 -19t-16 -16q-2 -2 -4.5 -3.5t-4.5 -3.5q-2 -1 -4 -2.5
t-4 -3.5q-7 -4 -14.5 -7.5t-15.5 -5.5q-7 -2 -13.5 -3.5t-12.5 -3.5q-10 -3 -18 -6t-14 -8q-6 -4 -9 -12.5t-3 -21.5v-59h-40v0v0z" />
    <glyph glyph-name="A" unicode="@" horiz-adv-x="775" 
d="M680 185h40q-16 -44 -44.5 -78t-67.5 -59q-40 -25 -82 -38t-86 -17h-7.5h-6.5h-4t-3 -1h-3.5h-3.5h-40q-68 0 -126.5 24.5t-107.5 75.5q-49 50 -73.5 109t-24.5 126q0 71 24 132t72 113t108 78t132 26l40 1q60 -1 114 -20.5t102 -57.5q48 -39 72 -90t24 -115v-6v-6
q-1 -3 -1 -6v-6q-1 -6 -1.5 -12t-1.5 -11q-7 -40 -25.5 -77.5t-47.5 -71.5t-65.5 -50.5t-80.5 -16.5l-40 1h-2h-2q-12 -1 -23.5 2.5t-22.5 9.5q-5 3 -9 7l-8 8l-6.5 -4.5t-7.5 -4.5q-2 -1 -3.5 -2t-3.5 -2q-14 -7 -29 -11t-32 -4l-40 1q-26 -1 -46.5 9t-34.5 29
q-15 20 -22 42t-7 47q0 9 0.5 18.5t1.5 19.5l4 20t5 20q9 37 27 70.5t44 64.5t58.5 46.5t72.5 15.5l40 1h4h4q14 -2 26.5 -6t24.5 -10q2 -1 3.5 -1.5t2.5 -2.5l2 8h40h78l-92 -266q-1 -4 -1.5 -7t-2.5 -6q-1 -2 -1.5 -4t-0.5 -3q-1 -2 -1.5 -3.5t-1.5 -3.5t-1.5 -4t-0.5 -4
q-1 -2 -1.5 -4t-0.5 -4q-1 -4 -2.5 -8.5t-2.5 -8.5t-1 -8v-7q0 -5 1.5 -9t4.5 -7q1 -1 2 -1.5t2 -1.5q23 5 42 16.5t35 30.5q21 24 35.5 51t22.5 57q2 5 3 9.5t2 9.5q1 4 1.5 9t1.5 9q2 9 2.5 18t0.5 18q0 55 -21.5 99t-63.5 78q-39 31 -81 47.5t-89 19.5q-56 -3 -103.5 -26
t-85.5 -66q-43 -46 -64 -99.5t-21 -114.5q0 -60 21.5 -112.5t64.5 -97.5q39 -41 86 -63.5t101 -25.5q38 2 71.5 11.5t63.5 27.5q35 20 62.5 48.5t49.5 65.5v2h40v0zM397 267l54 158q1 1 1.5 3t0.5 5v3t1 3v2.5v2.5v5v4q-1 10 -5.5 19.5t-11.5 18.5q-4 5 -9 9t-11 6
q-16 -5 -30.5 -17t-27.5 -31q-18 -25 -31.5 -53.5t-24.5 -58.5q-7 -19 -12 -37t-8 -35q-3 -18 -4.5 -32.5t-1.5 -25.5q0 -12 3.5 -22.5t10.5 -19.5q5 -5 10 -8.5t11 -5.5q10 2 18.5 7.5t16.5 13.5q12 12 21.5 25.5t16.5 28.5q2 4 3.5 7.5t2.5 7.5q2 4 3.5 7.5t2.5 7.5v2v0z
" />
    <glyph glyph-name="B" unicode="A" horiz-adv-x="681" 
d="M300 661l58 26h40q5 -20 10.5 -38l10.5 -36t11 -36l12 -35l108 -320q1 -4 2 -7.5t2 -6.5q0 -3 1 -6l2 -6l4 -12t4 -11q4 -12 8.5 -24t8.5 -24l9.5 -23.5t9.5 -22.5q6 -13 13.5 -21.5t17.5 -12.5t21.5 -7t24.5 -5h1h2v-33h-40h-14.5h-14.5q-8 0 -15 0.5t-15 0.5
q-4 0 -9 0.5t-9 0.5q-5 0 -9.5 0.5t-9.5 0.5q-3 0 -6 -0.5t-6 -0.5h-7h-6q-10 -1 -20.5 -1.5t-21.5 -0.5h-8h-7h-40h-7.5h-6.5v34h40l2 -1h-40h4q1 -1 2 -1t2 1h2.5h2.5h2t3 1h2.5h2.5q7 1 13 3t12 5t9 8.5t3 12.5v2v2q-1 1 -1 2v2v2v2q-1 1 -1 2.5v2.5q-1 3 -1.5 7t-2.5 8
q-1 4 -2 7.5t-2 7.5q-1 2 -2 4.5t-2 4.5t-1.5 4.5t-0.5 4.5l-44 139h-169l-36 -101q-1 -5 -2 -8l-2 -6q-1 -1 -1.5 -2.5t-0.5 -2.5l-1.5 -3t-0.5 -3q-4 -10 -7 -19.5l-6 -19.5t-4.5 -19.5t-1.5 -18.5q0 -7 2.5 -12.5t8.5 -8.5t12.5 -5l13.5 -4h3h3q1 -1 2.5 -1h2.5h2h3
q1 -1 2.5 -1h2.5l2 1h2v-33h-40h-13.5h-12.5q-7 0 -13.5 0.5t-13.5 0.5q-4 0 -8 0.5t-8 0.5t-8 0.5t-8 0.5t-7.5 -0.5t-7.5 -0.5t-7.5 -0.5t-7.5 -0.5q-12 -1 -24 -1h-24h-40l-1 34h40l5 -1h-40l6 1q2 -1 4 -1t5 1q2 0 4 0.5t4 0.5q4 1 8 2.5t8 2.5q4 2 8 5t8 8l8.5 11
t8.5 13q5 8 9.5 16.5t8.5 18.5l4 10t5 10l4 10l4 10l12 31t11 29l9 25t7 18l75 201q5 11 9.5 23.5l9.5 25.5l10 26l10 26q5 12 9.5 25t9.5 26q2 6 4.5 12.5t5.5 13.5q2 6 4.5 12.5t4.5 12.5v2v0zM396 314l-63 199l-73 -199h136v0v0z" />
    <glyph glyph-name="C" unicode="B" horiz-adv-x="628" 
d="M387 365q39 -5 73.5 -16t63.5 -29q30 -19 45 -51.5t15 -77.5q0 -53 -18.5 -90.5t-55.5 -59.5t-79 -32t-89 -10h-40h-8.5h-9.5q-4 1 -8.5 1h-9.5h-18h-17q-9 0 -18 0.5t-18 1.5h-3.5h-3.5h-3.5h-3.5h-5h-6h-7.5h-6.5q-4 -1 -7.5 -1h-6.5l-5 1l-4 -1q-3 -1 -6 -1h-6h-7h-6
h-40h-12h-12v34q19 -2 33 0.5t24 8.5q10 5 15 18.5t6 34.5l1 67v343l-1 66q-1 21 -6.5 34.5t-16.5 17.5q-10 5 -25 7.5t-34 2.5v36h40q3 -2 6 -2.5t6 -0.5h3.5h3.5q1 -1 3 -1h4h3.5h2.5q2 -1 3.5 -1h2.5h6.5h7.5q6 -1 12 -1.5t13 -0.5h5.5h5.5h5.5h5.5q9 0 18.5 0.5
t19.5 1.5h9.5h9.5h9h9h9.5t9.5 1h9h9l52 2h40q31 -2 57.5 -11.5t48.5 -27.5q23 -18 34 -43.5t11 -58.5q0 -36 -11 -63t-33 -47q-22 -19 -47.5 -32t-55.5 -21v1zM246 334v-161v-6.5v-4.5v-4.5v-4.5q0 -1 -0.5 -2.5t-0.5 -2.5v-3v-3v-6v-6q0 -28 4 -46.5t12 -29.5
q6 -8 19.5 -12.5t32.5 -6.5q31 2 56 12t44 27q23 20 34 49t11 67q0 45 -15 73.5t-44 41.5q-30 13 -62.5 20t-67.5 8h-2h-2q-3 -1 -5.5 -1h-4.5l-40 1q-2 -1 -4.5 -1h-4.5v2h40v0zM246 375q29 1 56 8t52 17q29 12 44 40.5t15 73.5q0 30 -11 52t-33 35q-20 11 -41.5 18
t-44.5 8h-2.5h-3.5h-4h-4q-2 -1 -4 -1h-4h-7.5h-7.5v-251v0z" />
    <glyph glyph-name="D" unicode="C" horiz-adv-x="720" 
d="M686 488l-33 -6h-40q-9 39 -26.5 68t-43.5 47q-23 16 -51.5 25.5t-62.5 10.5q-56 -3 -101 -25t-79 -62q-37 -43 -55 -95.5t-18 -113.5q0 -64 18 -119t55 -99q33 -40 80 -62t107 -25q37 2 66.5 12t51.5 29q24 21 41 52.5t27 72.5l40 1l35 -2l-23 -154q-28 -13 -56 -22
t-57 -17q-29 -7 -58.5 -10.5t-59.5 -3.5h-40q-78 0 -143 21.5t-117 66.5t-77.5 108t-25.5 144q0 77 26.5 139.5t78.5 110.5q53 48 116.5 72t139.5 24l40 1q3 -1 6 -1h6q2 -1 5 -1h6h6t6 -1q2 0 5 -0.5t6 -0.5q22 -2 43.5 -6t43.5 -10l22 -6t22 -5l21 -6l22 -6l4 -1l5 -1
l16 -144v0v0z" />
    <glyph glyph-name="E" unicode="D" horiz-adv-x="784" 
d="M44 633v34h40q3 -2 6 -2.5t6 -0.5h3h3q1 -1 2.5 -1h2.5q9 -1 18 -1.5t18 -0.5q3 0 5.5 -0.5t5.5 -0.5h5.5h5.5h11.5h10.5t10.5 0.5t11.5 0.5h18t18 1q8 0 17 0.5t18 0.5h34.5t35.5 1h18t18 1h17h18l40 1q70 -1 122.5 -25.5t88.5 -74.5q36 -49 54 -106t18 -121
q0 -35 -6 -69t-18 -67t-30.5 -62t-44.5 -54q-28 -28 -57.5 -46t-61.5 -27t-66.5 -12.5t-72.5 -3.5h-40h-11.5h-10.5q-6 1 -11.5 1h-11.5t-11.5 0.5t-10.5 0.5h-11.5h-10.5q-11 0 -22.5 0.5t-22.5 1.5h-13.5t-13.5 1q-5 0 -10.5 -0.5t-10.5 -0.5t-10.5 -0.5t-10.5 -0.5
q-16 -1 -32 -1h-32h-40v34q19 -2 34 0.5t25 7.5q11 5 16.5 18.5t6.5 35.5l1 67v340l-1 66q-1 20 -6 33t-15 18t-24.5 8t-32.5 3v2v0zM248 620v-13v-11v-11v-10q-1 -6 -1 -11.5v-10.5v-11.5v-10.5v-322v-50v-18v-16v-8t1 -7q0 -4 0.5 -8t1.5 -8q1 -6 2.5 -12t4.5 -11
q2 -5 6 -9.5t9 -7.5t10 -4.5l12 -3.5q6 -1 13 -2.5t14 -1.5q5 -1 10.5 -1.5t10.5 -0.5q23 0 46.5 3t45.5 9q24 5 46 17t41 30q22 20 38.5 44.5t26.5 52.5q11 29 17.5 57.5t7.5 58.5v3.5t1 3.5v3v3v6v6q0 70 -20 123t-61 89q-37 33 -85 51t-107 21h-5h-6h-6.5h-6.5
q-4 -1 -7 -1h-6l-6 1h-5q-6 -2 -11.5 -2.5t-10.5 -0.5l-40 1q-5 -1 -10.5 -1h-10.5v2h40v0z" />
    <glyph glyph-name="F" unicode="E" horiz-adv-x="615" 
d="M542 531l-36 -8h-40l-1 1v2q-1 1 -1.5 3.5t-0.5 5.5q0 2 -0.5 3t-0.5 3q-1 1 -1 2.5v2.5q-1 8 -3.5 14.5t-5.5 13.5t-7.5 13t-9.5 10q-7 6 -16.5 10.5t-20.5 7.5l-10.5 2l-10.5 2q-6 1 -11.5 1.5t-10.5 1.5h-6t-5 1h-5.5h-5.5h-5.5h-4.5h-2.5h-2.5q-4 -1 -8.5 -1h-9.5h-4
h-4h-5h-4q-10 0 -17.5 -1t-10.5 -3q-4 -2 -5.5 -8t-1.5 -17v-230h65q26 -2 45.5 1t32.5 9q12 6 18.5 23.5t6.5 45.5l35 2h40q-1 -14 -1.5 -27t-0.5 -25v-25.5v-25.5v-6v-6v-7v-6v-6t1 -6v-6v-6v-6t1 -6q0 -4 0.5 -7t0.5 -6q0 -6 0.5 -12t1.5 -12l-40 1l-38 1q-1 28 -7.5 45
t-18.5 21q-12 5 -32 7.5t-48 2.5l-62 2v-137v-38v-7v-5v-5.5v-4.5q0 -10 0.5 -19t1.5 -18t2.5 -15t4.5 -10q3 -5 7 -8.5t9 -5.5t10.5 -3.5t11.5 -2.5q8 -1 16.5 -2.5t16.5 -1.5l28 2q38 -2 65 2t45 13t32.5 32.5t25.5 61.5l40 1l34 -8l-34 -144h-40h-41.5t-40.5 1h-20t-20 1
h-20h-20h-10t-10 1h-11h-10v0v0l-114 1q-16 -2 -31.5 -3t-30.5 -1h-15h-16h-15h-16h-40v35q19 -2 33.5 0.5t24.5 7.5t15 18.5t6 34.5l1 68v340l-1 65q-1 20 -6 33.5t-15 18.5t-24.5 7.5t-33.5 2.5v37h40q14 -2 28 -3.5t28 -1.5q14 -1 28 -1h28q14 -1 27.5 -1h27.5h4h4h4h4
h14h14h13h14h14t14 1h14h14q14 0 27.5 0.5t26.5 1.5q14 0 28 0.5t28 1.5l40 1l15 -136v0v0z" />
    <glyph glyph-name="G" unicode="F" horiz-adv-x="545" 
d="M518 524l-34 -3h-40q-3 26 -11.5 46t-22.5 32t-35 18t-48 7h-10h-10h-5.5t-4.5 1h-5.5h-4.5h-10.5h-9.5q-5 -1 -8.5 -1.5t-5.5 -1.5q-4 -1 -5.5 -6.5t-1.5 -13.5v-5.5v-4.5v-5t1 -4v-5.5v-4.5v-5.5v-4.5v-218h53q33 -2 54 0.5t29 6.5q8 5 14 16t9 27q0 3 0.5 6.5t1.5 7.5
q0 3 1 7l2 8l33 2h40v-5.5v-4.5q-1 -2 -1 -4.5v-4.5v-4v-4v-5v-4q-1 -9 -1.5 -17.5t-0.5 -16.5v-16.5v-16.5v-6v-6v-7v-6v-6t1 -6v-6v-6v-4v-4v-2t1 -2v-2v-2v-4v-4v-5v-4v-4t1 -4v-4v-4l-40 1l-33 1l-1 5v1v2v1v2q-1 15 -4.5 26.5t-9.5 20.5t-24 13.5t-48 4.5l-77 2v-141
l1 -66q0 -23 6 -37t16 -19q11 -4 25.5 -6.5t33.5 -2.5v-33h-40h-14.5h-15.5h-7.5t-6.5 1q-4 0 -7.5 0.5t-7.5 0.5h-14.5h-15.5h-2.5h-2.5h-2.5h-2.5h-2.5h-2.5h-3h-3h-16h-16q-8 -1 -16 -1.5t-16 -0.5h-16h-16h-40v35q19 -2 33.5 0.5t24.5 7.5t15 18.5t6 34.5l1 68v340
l-1 65q-1 22 -6.5 35.5t-16.5 17.5q-11 5 -26 7t-34 2v37h40q14 -2 28.5 -3.5t28.5 -1.5q14 -1 28.5 -1h29.5q14 -1 28 -1h29h4h5h4h4h24h24h12t13 1h12h12q12 0 24 0.5t24 1.5h12t13 1q6 0 12 0.5t12 0.5l40 1l16 -143v0v0z" />
    <glyph glyph-name="H" unicode="G" horiz-adv-x="744" 
d="M676 492l-30 -5h-40q-9 37 -26 64.5t-43 45.5q-22 16 -50 25t-61 10q-61 -3 -107 -28t-77 -71q-33 -49 -49.5 -105.5t-16.5 -118.5q0 -58 17.5 -108t53.5 -91q32 -37 75.5 -57t96.5 -23q23 1 41 5t33 11q17 8 26 28t9 51v24q0 27 -3 45t-9 25q-6 8 -25 12.5t-51 5.5
l-23 3v36h40q17 -4 33.5 -5.5t32.5 -2.5q11 -1 21.5 -1h20.5q12 0 23.5 0.5t22.5 1.5q16 1 31.5 2.5t31.5 2.5l40 1v-35q-21 -2 -33.5 -6.5t-17.5 -10.5q-5 -7 -8 -20.5t-4 -34.5v-57v-22.5t1 -20.5t3 -20t5 -20q-23 -8 -46.5 -15t-47.5 -12q-12 -1 -24 -3l-23 -4
q-12 -2 -24 -3.5t-24 -2.5h-10h-10h-4.5t-4.5 -1h-5.5h-4.5h-40q-73 0 -135.5 20.5t-113.5 63.5q-52 43 -77.5 103t-25.5 137q0 86 24.5 152.5t73.5 114.5q50 48 116.5 72.5t151.5 24.5l40 1q3 -1 5.5 -1h5.5q2 -1 4.5 -1h5.5h5.5h5.5q2 -1 5 -1h6q22 -2 43.5 -5.5
t43.5 -8.5l42 -10.5l42 -11.5l16 -145v0v0z" />
    <glyph glyph-name="I" unicode="H" horiz-adv-x="820" 
d="M247 368h327v136l-2 65q-1 20 -6 33t-15 18t-24.5 8t-34.5 3v37h40q5 -2 10 -2.5t11 -1.5q5 0 10 -0.5t10 -0.5t10 -0.5t11 -0.5q5 -1 10 -1h10v0h1v0v0h15.5h15.5q7 0 15 0.5t15 0.5q15 0 30.5 1.5t31.5 2.5l40 1v-34h-11q-19 -2 -32 -5.5t-21 -9.5q-7 -6 -11.5 -18.5
t-4.5 -32.5l-1 -63v-340l1 -66q0 -20 4.5 -33.5t11.5 -19.5q8 -6 21 -9t32 -3l-40 1l11 1h40v-35h-40h-30t-30 1q-5 0 -10 0.5t-10 0.5t-10 0.5t-10 0.5q-7 -1 -13.5 -1h-14.5q-6 0 -12 -0.5t-11 -0.5q-6 -1 -12 -1h-12h-7.5h-7.5h-40h-8h-8v35q20 -2 34.5 0.5t24.5 8.5
q10 5 15 18t6 34l2 68v161h-327v-161l1 -66q0 -23 6 -36.5t16 -18.5q11 -5 25 -7.5t33 -2.5v-33h-40h-16h-16q-9 0 -17 0.5t-16 0.5q-5 0 -10.5 0.5t-10.5 0.5t-10.5 0.5t-10.5 0.5q-7 -1 -13.5 -1h-12.5q-11 -1 -22 -1.5t-22 -0.5h-8h-7h-40h-7.5h-7.5v35q19 -2 34 0.5
t25 7.5q11 5 16 18t6 35l1 68v340l-1 65q-1 21 -6 34.5t-16 17.5q-10 5 -25 7.5t-34 2.5v37h40q15 -2 30.5 -3.5t31.5 -2.5q5 0 10 -0.5t11 -0.5h10h10h21.5t20.5 1l30.5 2l31.5 2l40 1v-34h-11q-18 -2 -31 -5.5t-21 -9.5t-12.5 -18.5t-4.5 -32.5l-1 -63v-136v0z" />
    <glyph glyph-name="J" unicode="I" horiz-adv-x="368" 
d="M42 633v35h40q8 -2 15.5 -3t14.5 -1q8 -1 16 -1.5t16 -0.5q3 0 6.5 -0.5t7.5 -0.5h7.5h6.5h14h14q6 0 13 0.5t14 0.5l30 2l30 2l40 1v-34h-12q-18 -2 -31 -5.5t-21 -9.5t-12.5 -18.5t-4.5 -32.5l-1 -63v-340l1 -66q0 -23 6 -36.5t16 -18.5q11 -5 25.5 -7.5t33.5 -2.5v-33
h-40h-8h-7h-8h-8q-7 0 -14.5 0.5t-15.5 1.5h-8h-7h-8h-8h-4h-4t-4 0.5t-4 0.5q-4 0 -8.5 -0.5t-9.5 -0.5q-4 0 -8.5 -0.5t-9.5 -0.5q-7 0 -15 -0.5t-15 -0.5h-15.5h-15.5h-40v35q19 -2 34 0.5t25 7.5q11 5 16 18t6 35l1 68v340l-1 65q-1 20 -6 33.5t-16 18.5q-10 5 -25 7.5
t-34 2.5v2v0z" />
    <glyph glyph-name="K" unicode="J" horiz-adv-x="350" 
d="M73 668q4 -2 8 -2.5t8 -0.5q3 -1 7 -1h8q8 -1 16 -1.5t16 -0.5h7.5h7.5q4 -1 7.5 -1h7.5h5.5h5.5h5.5h5.5h7.5t7.5 1h8h8q8 0 15.5 0.5t14.5 1.5q8 0 15.5 0.5t14.5 1.5l40 1v-34l-6 -1l-6 -1h-6h-4q-9 -2 -16.5 -3.5t-15.5 -4.5q-7 -3 -11 -10.5t-6 -18.5l-2 -16.5
t-1 -16.5v-16.5v-16.5v-74v-173v-15.5v-14.5v-7.5t1 -6.5v-7.5v-6.5v-14.5v-14.5v-7.5t1 -6.5v-7.5v-6.5q0 -30 -1 -57.5t-3 -53.5q-2 -19 -6 -37t-10 -35q-3 -6 -5 -12t-5 -12q-4 -8 -9 -16t-10 -17q-5 -8 -11 -16.5t-13 -17.5l-7.5 -9.5t-8.5 -9.5q-4 -5 -9 -10l-10 -10
q-9 -9 -19.5 -18l-21.5 -18q-11 -8 -22.5 -15t-22.5 -12q-4 -2 -7.5 -3t-6.5 -2q-2 0 -3.5 -1t-3.5 -1q-5 -2 -10.5 -2.5t-11.5 -0.5h-40h-1h-2q-2 1 -3.5 1h-3.5h-3.5h-3.5q-2 1 -4 1h-4q-5 1 -10.5 2.5t-9.5 3.5q-5 2 -7.5 5t-2.5 8q0 2 1 5t3 8l2 4l2 4q1 3 2 5t3 4
q1 1 2 2.5t1 3.5q1 1 2 2.5t2 3.5q1 1 2 2.5t1 2.5l2 2l2 2q2 3 4.5 4.5t4.5 3.5l6 4h40h2l2 -1h2h2q6 -2 12 -4.5t12 -3.5q1 0 2 -0.5t2 -0.5l1 -0.5t2 -0.5q17 4 30 13t21 24q11 19 18 40t11 44q2 10 2.5 19t1.5 18v9t1 9v8.5v8.5l1 122v117v155v19.5v20.5v10.5v11.5
q-1 5 -1 10.5v11.5v10.5v10.5v5.5v5.5q-1 2 -1 5v6q-1 23 -7 36t-16 17q-10 5 -24.5 7.5t-34.5 3.5l-3 1h-2v36h40v0v0z" />
    <glyph glyph-name="L" unicode="K" horiz-adv-x="717" 
d="M245 380l80 87q4 3 7.5 6.5l7.5 7.5l6.5 8.5t7.5 8.5t7.5 8.5t7.5 8.5q3 5 6.5 9.5t7.5 8.5l6.5 8.5t7.5 8.5l4 4t4 5q1 2 3 4l4 4l5 6q1 0 1.5 1t1.5 2l0.5 1t1.5 2q2 2 3.5 4t2.5 4q1 1 1.5 2l1.5 3q0 1 0.5 2t1.5 2q1 2 1.5 4t1.5 4t1.5 4t0.5 4q0 5 -2 8.5t-5 4.5
q-4 2 -7.5 3t-8.5 2h-2t-2 1h-2h-2l-7 1l-11 1v35h40q14 -2 27.5 -3.5t26.5 -2.5q4 0 8.5 -0.5t8.5 -0.5h8.5h8.5h9.5h9.5t9.5 0.5t9.5 0.5l28.5 2l28.5 2l40 1v-34q-22 -2 -41.5 -7.5t-35.5 -14.5t-30.5 -19.5t-28.5 -24.5q-2 -2 -4.5 -4t-4.5 -4q-2 -3 -4.5 -5t-4.5 -4
t-4 -4.5t-4 -4.5q-3 -2 -5 -4.5t-4 -4.5l-116 -120l158 -208l10.5 -16.5t11.5 -16.5l12 -17.5t13 -16.5q15 -20 31.5 -38.5t35.5 -35.5q18 -16 39 -24.5t44 -8.5v-30h-40h-13.5h-12.5h-13.5h-13.5h-26h-26q-12 0 -21 1t-15 4q-7 2 -13 6t-12 10q-3 2 -6 5t-6 7q-3 3 -6 7.5
t-6 8.5q-2 3 -4.5 6t-4.5 6q-3 3 -5.5 6t-4.5 6l-8.5 12.5l-9.5 13.5q-3 3 -5.5 6t-4.5 7q-3 3 -5.5 6t-4.5 6t-4.5 6t-4.5 7q-2 3 -4.5 6t-4.5 6l-129 179l-41 -44v-120l2 -66q0 -23 6 -36.5t16 -18.5q11 -5 25 -7.5t33 -2.5v-33h-40h-8h-8h-7.5h-7.5q-11 0 -22.5 0.5
t-22.5 1.5h-10.5h-11.5h-7.5h-7.5h-14.5h-15.5q-8 -1 -16 -1.5t-16 -0.5h-8h-7h-8h-8h-40v35q19 -2 34 0.5t25 7.5q11 5 16 18t6 35l1 68v340l-1 65q-1 21 -6 34.5t-16 17.5q-10 5 -25 7.5t-34 2.5v37h40q8 -2 15.5 -2.5t15.5 -1.5q7 -1 15 -1.5t15 -0.5q5 0 10 -0.5
t11 -0.5h10h10h21.5t20.5 1l30.5 2l31.5 2l40 1v-34h-12q-18 -2 -31 -5.5t-21 -9.5q-7 -6 -11.5 -18.5t-4.5 -32.5l-2 -63v-124v0z" />
    <glyph glyph-name="M" unicode="L" horiz-adv-x="565" 
d="M539 149l33 -9l-42 -140h-40q-40 1 -80.5 1.5t-81.5 0.5h-33t-34 1h-33h-34q-12 0 -24 -0.5t-25 -1.5q-7 0 -15 -0.5t-15 -0.5h-15.5h-15.5h-40v35q19 -2 33.5 0.5t24.5 7.5t15 18.5t5 34.5l2 68v340l-2 65q0 20 -5 33.5t-16 18.5q-10 5 -24.5 7.5t-32.5 2.5v37h40
q4 -2 7.5 -2.5t7.5 -0.5q3 -1 6.5 -1h7.5t7.5 -0.5t7.5 -0.5q3 -1 6.5 -1h7.5h4.5h4.5h2h2q3 -1 6.5 -1h7.5h27.5t27.5 1q17 0 33.5 1.5t32.5 2.5l40 1v-34h-13q-19 -2 -32 -5.5t-21 -9.5q-7 -6 -11.5 -18.5t-4.5 -32.5l-1 -63v-330v-62v-6.5v-4.5v-4t1 -4q0 -7 1.5 -14
t3.5 -13t5.5 -11t9.5 -8q4 -3 10 -4.5t14 -2.5q7 -1 13.5 -1.5t13.5 -0.5q34 1 61.5 4t47.5 9q23 7 40.5 31t30.5 65v2h40v0z" />
    <glyph glyph-name="N" unicode="M" horiz-adv-x="923" 
d="M73 668q2 -2 4.5 -2.5t5.5 -0.5q2 -1 4.5 -1h4.5q5 -1 10 -1h10q5 -1 9.5 -1h8.5v0h1v0v0h10.5t11.5 1h10t11 1q5 0 10.5 0.5t10.5 1.5l40 1l22 -52.5l23 -51.5l23 -50.5l24 -51.5l134 -276l133 278l8 14.5l8 15.5t8 17l8 18q2 2 3 4.5t3 5.5l2.5 5t2.5 6q2 5 4.5 10.5
t5.5 11.5l10.5 24t9.5 24q5 12 9 24l8 23l40 1q5 -2 10.5 -2.5t11.5 -0.5q5 -1 10.5 -1h10.5q5 -1 10.5 -1h10.5h5.5h4.5t4.5 0.5t5.5 0.5q10 0 19.5 1l19.5 2l40 1v-32h-21q-19 -2 -33.5 -5.5t-22.5 -9.5t-12 -19t-4 -33v-6v-6v-6t1 -6l10 -355l1 -59q0 -30 3 -49t9 -28
q5 -9 22.5 -14t46.5 -6v-33h-40h-31.5t-30.5 1q-3 0 -6.5 0.5t-7.5 0.5h-3h-4q-5 0 -10 0.5t-11 0.5q-5 0 -10 -0.5t-10 -0.5t-10.5 -0.5t-10.5 -0.5q-7 0 -15 -0.5t-15 -0.5h-15.5h-15.5h-40v35q24 -1 40.5 3.5t24.5 12.5t12.5 23.5t4.5 39.5v38l-3 304l-157 -331
q-1 -5 -2.5 -8t-3.5 -6q-1 -1 -1.5 -2.5t-0.5 -3.5q-1 -1 -1.5 -2.5t-1.5 -2.5l-11.5 -24l-10.5 -24t-9.5 -24t-9.5 -24l-40 1l-16 1l-8 15l-203 430l-4 -245q-1 -10 -1 -18.5v-16.5v-17.5v-16.5q0 -22 2.5 -40.5t7.5 -33.5t21 -22.5t43 -7.5l-40 1l8 1h40v-35h-40h-7.5
h-6.5h-3h-3h-3.5h-3.5h-10t-10 1q-6 0 -11 0.5t-10 0.5h-5.5h-5.5t-5.5 0.5t-5.5 0.5q-4 0 -7.5 -0.5t-7.5 -0.5t-7.5 -0.5t-6.5 -0.5q-6 0 -12 -0.5t-12 -0.5h-13h-12h-40v35h40l4 -1h-40l5 1h6l6 1q5 -1 10.5 0.5t10.5 2.5q5 2 9.5 5t8.5 7q3 5 6 11.5t4 13.5q2 8 3.5 16
t2.5 16v5.5t1 5.5v4.5v5.5v5.5t1 4.5v5.5v4.5v5v5l1 35l10 303v4v6v3t1 3v2.5v2.5v3.5t1 2.5v3.5v2.5v3v3v2.5v2.5v3t1 3v2.5v2.5v6v6q0 20 -3.5 33.5t-11.5 20.5q-7 8 -20 11.5t-32 3.5l-25 2v33h40v0v0z" />
    <glyph glyph-name="O" unicode="N" horiz-adv-x="801" 
d="M80 668q5 -2 10.5 -3t10.5 -1h5.5h5.5q2 -1 5 -1h6h5.5h5.5q2 -1 4.5 -1h5.5v0h1v0v0h4.5t5.5 1h4.5h5.5h4.5t4.5 1h4.5h4.5q5 0 10 0.5t10 1.5l40 1l7 -7l349 -459v179v58l-4 104q-1 25 -4.5 42.5t-9.5 27.5q-6 9 -23 14t-44 6v36h40q6 -2 12.5 -3t13.5 -1
q7 -1 13.5 -1.5t13.5 -0.5q6 -1 12.5 -1h13.5h3.5h3.5h3.5h3.5h6t7 1h6.5h7.5q6 0 12.5 0.5t13.5 1.5q7 0 13.5 0.5t13.5 1.5l40 1v-33q-2 -2 -4.5 -2h-4.5h-5h-4q-5 -1 -9.5 -1.5t-9.5 -1.5q-4 -1 -8.5 -3t-8.5 -4q-6 -4 -10 -9.5t-7 -12.5q-1 -4 -2.5 -7.5t-2.5 -6.5
q0 -4 -1 -7.5t-1 -7.5q-1 -4 -1 -8.5v-9.5v-8.5v-7.5v-4l-2 -106l-4 -443h-40h-18l-61 78l-356 460l2 -244v-9v-7v-3v-3v-3.5v-3.5v-20t1 -19q0 -10 0.5 -20t0.5 -20q0 -19 1.5 -38.5t3.5 -39.5t8 -33t15 -18t22.5 -7.5t32.5 -2.5v-31h-40h-14h-14t-14 0.5t-14 1.5h-14.5
h-14.5h-2h-2h-2h-2h-2.5h-3.5h-6h-6q-3 -1 -6 -1h-6h-3.5h-3.5q-1 -1 -2.5 -1h-3.5h-3h-3h-3.5h-3.5h-3h-3h-3.5h-3.5h-40h-6h-6v33q29 -2 45.5 5t21.5 20q5 14 7.5 32.5t3.5 41.5v3v3l2 72l4 302v34q0 26 -4.5 43.5t-12.5 24.5q-9 7 -25.5 11.5t-41.5 6.5v36h40v0v0z" />
    <glyph glyph-name="P" unicode="O" horiz-adv-x="815" 
d="M775 334q0 -76 -25.5 -137.5t-75.5 -110.5t-112.5 -72.5t-136.5 -23.5h-40q-75 0 -136.5 24.5t-110.5 73.5q-49 50 -73.5 111.5t-24.5 135.5t25.5 135t77.5 109t114 72.5t134 24.5l40 1q73 -1 134.5 -25.5t110.5 -74.5q50 -49 74.5 -110.5t24.5 -133.5v1zM642 324v5v7
q-1 3 -1 6.5v6.5q-1 7 -1.5 14t-1.5 14q-7 48 -27 93t-52 85q-28 37 -66 57t-84 23q-55 -3 -97 -26t-72 -64q-33 -45 -49.5 -96t-16.5 -108v-4v-4v-5v-4v-4t1 -4v-4v-4q5 -53 23.5 -101.5t51.5 -92.5q30 -40 71 -62t92 -25q53 3 94.5 25.5t69.5 63.5q32 45 48 95t17 105v4v3
v1v0z" />
    <glyph glyph-name="Q" unicode="P" horiz-adv-x="552" 
d="M261 290v33q35 1 62 11.5t48 31.5q21 20 31.5 48t10.5 63q0 40 -12 69t-36 47q-22 17 -48 25.5t-58 10.5q-2 -1 -4.5 -1h-4.5q-1 -8 -1.5 -16t-0.5 -16v-16v-16q-1 -8 -1 -16v-16v-16v-16v-336l1 -66q0 -24 6 -37.5t17 -18.5q11 -4 26 -6.5t34 -2.5v-33h-40h-14.5h-15.5
q-7 0 -14.5 0.5t-15.5 1.5h-15.5h-15.5h-8t-9 1q-4 0 -9 -0.5t-10 -0.5q-4 0 -9 -0.5t-10 -0.5q-16 -1 -32 -1h-32h-40v35q19 -2 34 0.5t25 7.5q11 5 16 18t6 35l2 68v340v6v8v8.5v7.5v3v2q-1 22 -4 39t-8 29t-23 18t-48 6v37h40q5 -2 10 -3t10 -1h10.5h10.5q2 0 3.5 -0.5
t3.5 -0.5h3h3h7.5h7.5q3 0 6.5 0.5t7.5 0.5h10t11 1q5 0 10 0.5t10 0.5q10 0 20 0.5t20 1.5h10.5t10.5 1h10.5h10.5l34 2h40q40 -2 71.5 -14t54.5 -36t35 -56t12 -72q0 -50 -18 -88.5t-53 -64.5t-75.5 -39t-86.5 -13l-40 1v1v0z" />
    <glyph glyph-name="R" unicode="Q" horiz-adv-x="813" 
d="M478 -7l124 -59l2 -1l4 -2l77.5 -35l79.5 -33q36 -14 73 -22t75 -10q7 0 14 0.5t14 1.5t13.5 1.5t12.5 0.5q9 1 18 2.5t19 3.5l18 4l18 4h40l3 -25h-2t-1 -1h-2h-2l-6 -2q-3 0 -6 -0.5t-5 -1.5q-3 0 -6 -0.5t-6 -1.5t-6 -1.5t-5 -1.5q-3 0 -5.5 -0.5t-5.5 -1.5
q-22 -5 -44 -8.5t-44 -6.5q-11 -2 -22 -3l-22 -2q-12 0 -23 -0.5t-22 -0.5h-40q-30 0 -62.5 6t-67.5 17l-71 25.5t-72 30.5l-28 13.5l-28 13.5l-28 14l-28 14l-51.5 26.5l-49.5 25.5q-25 13 -47.5 23t-42.5 20q-46 22 -81.5 53.5t-60.5 73.5t-37.5 88t-12.5 97
q0 74 25.5 135t76.5 110t113 73.5t135 24.5l40 1q71 -1 132 -25.5t111 -73.5t75 -109.5t25 -132.5q0 -71 -20 -128t-60 -101q-40 -43 -93.5 -71.5t-121.5 -41.5v0v0zM641 325v2.5v3.5q-1 1 -1 3v4v8v8q-4 53 -23 101t-52 92q-30 40 -70.5 62t-91.5 25q-52 -3 -93 -25
t-70 -63q-32 -45 -49 -94t-19 -102v-4v-6q0 -60 16 -114t48 -102q29 -45 72.5 -69t101.5 -27q53 3 94.5 25.5t70.5 63.5q32 45 48.5 95t17.5 105v4v3v1v0z" />
    <glyph glyph-name="S" unicode="R" horiz-adv-x="678" 
d="M678 30v-30h-40h-67q-29 0 -48.5 2t-28.5 8q-9 5 -16.5 12.5t-12.5 16.5q-1 2 -2.5 4.5t-3.5 5.5q-1 2 -2.5 4.5t-3.5 5.5l-172 249q-4 -2 -8.5 -2h-8.5h-8.5h-9.5v-142l1 -66q0 -23 6 -37t16 -19q11 -5 26 -7.5t34 -2.5l-1 -32h-40h-15h-15q-8 0 -15.5 0.5t-15.5 0.5
q-3 0 -6.5 0.5t-7.5 0.5h-3h-4q-5 0 -10 0.5t-11 0.5q-5 0 -10 -0.5t-10 -0.5t-10.5 -0.5t-10.5 -0.5q-16 -1 -31.5 -1h-30.5h-40v34q19 -2 33.5 0.5t24.5 7.5q11 5 16 18.5t6 35.5l1 68v340l-1 65q-1 20 -6 33.5t-16 18.5q-10 5 -24.5 7.5t-33.5 2.5v37h40q10 -2 19.5 -3.5
t19.5 -2.5q5 -1 10.5 -1h10.5h6.5h7.5t7.5 0.5t6.5 0.5q12 0 24.5 1l25.5 2q12 0 24 0.5t25 1.5h12t13 1h12.5h12.5l40 1q33 -1 61.5 -12t52.5 -32q24 -22 36.5 -49.5t12.5 -61.5t-8.5 -62.5t-25.5 -51.5q-16 -24 -39.5 -41.5t-53.5 -29.5q4 -4 7.5 -8.5l7.5 -9.5t7.5 -10.5
t7.5 -10.5l3 -4l4 -5l95 -128q3 -6 7.5 -12t8.5 -12l10 -13.5l10 -12.5q2 -3 4.5 -6t4.5 -6t4.5 -5.5t5.5 -4.5l10 -11.5l10 -10.5q2 -3 4.5 -5t5.5 -4q2 -2 4.5 -3.5t4.5 -3.5q6 -4 13 -6l14 -4l15.5 -2l14.5 -2v1zM206 346h35q32 -2 60 7.5t52 28.5t36 46t12 61
q0 37 -11.5 64t-34.5 43q-19 14 -41.5 22t-48.5 10h-4h-4q-2 -1 -4.5 -1h-4.5v-7.5v-7.5q-1 -4 -1 -7.5v-7.5v-14.5v-15.5v-8v-8q-1 -4 -1 -7.5v-7.5v-14.5v-15.5v-160h-40v0v0z" />
    <glyph glyph-name="T" unicode="S" horiz-adv-x="497" 
d="M450 537l-34 -7h-40q-5 20 -15 39.5t-24 35.5q-12 14 -27 22.5t-33 11.5q-18 -3 -34.5 -10t-31.5 -18q-20 -15 -30 -35.5t-10 -47.5q0 -24 8.5 -44t24.5 -35q17 -16 36 -30.5t41 -28.5q4 -3 8 -5.5t8 -4.5q4 -3 8 -5.5t8 -4.5q26 -16 50.5 -35.5t46.5 -41.5t33 -51
t11 -67q0 -45 -16.5 -79.5t-49.5 -58.5t-70.5 -35.5t-78.5 -11.5h-40q-20 0 -39.5 2.5t-39.5 7.5q-19 3 -38 9.5t-37 14.5l-2 16.5l-2 17.5l-2 16.5t-3 16.5q-1 8 -2.5 16.5t-2.5 17.5q-2 8 -3 16.5t-3 16.5l38 9h40q6 -29 16.5 -53.5t26.5 -45.5q13 -18 32 -28.5t44 -13.5
q20 2 38.5 10t35.5 21q21 17 32 39.5t11 50.5q0 27 -9 49t-27 38q-18 17 -39 33t-44 31q-3 2 -5.5 3.5t-4.5 2.5q-1 1 -2.5 2t-2.5 2q-2 0 -3 1l-2 2q-26 17 -50 35.5t-46 39.5t-32.5 49.5t-10.5 64.5q0 44 16 77t48 55t68.5 33t76.5 11l40 1q15 -1 30 -2.5t30 -4.5
q8 -1 15 -3t15 -3l14.5 -4l14.5 -4q2 -16 3.5 -31t4.5 -30q2 -7 3.5 -14.5t2.5 -14.5q2 -8 3.5 -15t3.5 -15v1z" />
    <glyph glyph-name="U" unicode="T" horiz-adv-x="609" 
d="M84 686h16q7 -6 14.5 -9.5t14.5 -5.5q8 -2 16 -3.5t16 -2.5q5 -1 9.5 -1.5t8.5 -0.5h4.5h4.5q2 -1 4.5 -1h4.5h10h11q5 -1 10 -1h10v0h1v0v0h20h20h21.5h20.5h9.5h9.5h9h9h18.5t19.5 1h18t18 1q9 0 18.5 0.5t19.5 1.5q11 1 22.5 2.5t22.5 3.5q5 1 10.5 2.5t11.5 2.5
l10.5 4l10.5 4l17 2h40l-9.5 -37t-9.5 -36l-4 -18l-4 -18q-2 -10 -3.5 -19t-3.5 -18l-40 1l-33 1q1 2 1.5 5.5t1.5 7.5v4t1 4v3v4q0 17 -6 28t-17 15q-11 5 -24 7t-27 2l-72 2v-460l1 -66q0 -25 6 -38.5t18 -18.5q11 -4 26 -6t34 -2v-33h-40h-31.5t-31.5 1q-4 0 -9 0.5
t-9 0.5q-5 0 -9.5 0.5t-9.5 0.5q-4 -1 -8.5 -1h-8.5h-8h-7q-4 -1 -8 -1h-8h-4h-4q-2 -1 -4 -1h-4h-7.5h-7.5h-8h-8h-40h-7.5h-7.5v35q19 -2 33.5 0.5t24.5 7.5t15 18.5t6 34.5l2 68v460h-25q-27 -2 -47.5 -4.5t-35.5 -7.5q-15 -4 -28 -19t-25 -39q-1 -1 -1.5 -2l-0.5 -1
q-1 -1 -1.5 -2t-0.5 -2t-0.5 -2l-0.5 -1q-1 -1 -1.5 -2t-0.5 -2l-40 1l-34 1q5 10 8.5 22t7.5 24t7.5 24t6.5 24l2 7l2 6q1 4 2 8.5t2 8.5q2 5 3.5 9.5t2.5 8.5v2h40v0z" />
    <glyph glyph-name="V" unicode="U" horiz-adv-x="769" 
d="M32 634v34h40q6 -2 12.5 -3t13.5 -1q7 -1 13.5 -1.5t13.5 -0.5q5 -1 10.5 -1h11.5h14h14t14 0.5t14 0.5q8 0 16 0.5t17 1.5q8 0 16 0.5t16 1.5l40 1v-33l-4 -1h-3q-1 -1 -2 -1h-2q-1 -1 -2 -1h-2h-2h-1h-2h-2q-6 -1 -12 -1.5t-11 -2.5q-5 -1 -9.5 -4t-8.5 -7t-7 -10
t-5 -12q-1 -7 -2.5 -13.5t-1.5 -14.5v-4.5v-4.5v-4v-4v-24v-220q0 -54 7 -102t22 -90q14 -39 48.5 -60t90.5 -23q58 2 94.5 21.5t52.5 55.5q17 39 25.5 86.5t8.5 102.5v40v109l-1 76v5v6q-1 21 -3.5 39t-7.5 32q-4 14 -21 21.5t-46 7.5v36h40q12 -3 24 -4.5t24 -1.5
q3 0 6.5 -0.5t7.5 -0.5h7.5h6.5h15t14 1q12 0 24.5 1.5t25.5 2.5l40 1v-33q-23 -2 -37.5 -9.5t-19.5 -22.5t-7.5 -32.5t-2.5 -37.5v-11.5v-10.5v-11.5v-10.5q-1 -6 -1 -12v-11v-11.5v-10.5v-125q0 -71 -11.5 -130.5t-34.5 -107.5t-76.5 -71.5t-136.5 -23.5h-40h-6h-5
q-3 1 -5.5 1h-5.5h-5.5h-4.5q-3 1 -5.5 1h-5.5q-28 3 -56 9.5t-54 16.5q-26 11 -46.5 30.5t-34.5 46.5q-6 10 -10 20.5t-7 22.5t-4.5 24t-2.5 25q-1 9 -1.5 18t-0.5 18v17.5v16.5v244v31q0 22 -2.5 41t-7.5 34t-21.5 22.5t-43.5 7.5v2v0z" />
    <glyph glyph-name="W" unicode="V" horiz-adv-x="627" 
d="M-27 634v34h40q7 -2 14 -3.5t14 -1.5q7 -1 14 -1.5t14 -0.5h4h5h4h4h28.5t29.5 1q15 0 30 1.5t30 2.5l40 1v-33q-1 -1 -2 -1.5l-1 -0.5q-1 -1 -2 -1h-2l-7 1q-9 -2 -16.5 -5t-14.5 -7t-10.5 -10.5t-3.5 -15.5q0 -8 1 -16t4 -16q2 -7 5 -14.5t7 -14.5v-3l2 -2l124 -320
l120 302q1 1 2 4l2 6q1 2 1.5 3.5t1.5 3.5q1 1 1.5 3t1.5 3q2 4 3 7.5t3 7.5q1 4 2.5 7.5t2.5 7.5q3 8 4.5 16t1.5 16q0 10 -4 16.5t-12 10.5q-7 4 -16 6t-18 3l-6 2h-5v35h40q13 -3 26 -4.5t26 -1.5q4 0 8 -0.5t8 -0.5h7h8h15.5t14.5 1q12 0 24.5 1.5t25.5 2.5l40 1v-33
q-26 -2 -45 -11t-30 -26q-12 -18 -21 -37t-17 -40q-1 -2 -1.5 -4t-1.5 -4t-1.5 -4t-0.5 -4q-1 -2 -1.5 -4t-0.5 -3q-1 -2 -1.5 -3.5t-1.5 -3.5q-1 -1 -1.5 -3t-0.5 -3q-1 -2 -1.5 -3.5t-1.5 -3.5l-124 -302l-5.5 -14.5t-4.5 -12.5l-4 -13.5l-4 -12.5q-1 -1 -1.5 -3t-0.5 -3
q-1 -2 -1.5 -3.5t-1.5 -3.5l-2 -6l-2 -6q-2 -7 -4.5 -13.5t-4.5 -13.5q-3 -7 -5.5 -13.5t-4.5 -12.5q-5 -13 -10.5 -25t-11.5 -22h-40h-16l-10.5 27t-10.5 29l-6 14t-5 15l-6 14.5l-6 14.5q-2 5 -4 9.5t-4 8.5q-1 2 -2 4.5t-1 5.5q-1 2 -2 4.5t-2 5.5l-113 292q-3 4 -5.5 10
t-4.5 12q-1 3 -2.5 6t-2.5 7q-2 3 -3 6l-2 6q-1 2 -1.5 4t-1.5 4l-2 4t-1 4l-2 4t-1 5l-2 4l-2 4q-1 4 -2.5 8t-3.5 8l-2 4t-1 4l-2 4l-2 4q-1 4 -2.5 7.5t-3.5 7.5q-6 14 -13.5 25t-15.5 19t-21 13.5t-32 6.5l-2 2v0z" />
    <glyph glyph-name="X" unicode="W" horiz-adv-x="918" 
d="M-26 635v32h40q4 -2 7.5 -2.5t6.5 -0.5h3.5h2.5q2 -1 3.5 -1h2.5q9 -1 18.5 -1.5t19.5 -0.5q5 -1 10.5 -1h10.5h16.5t15.5 1q7 0 14 0.5t14 1.5q6 0 13 0.5t14 1.5l40 1v-31l-6 -2h-4l-13.5 -4t-12.5 -5t-8.5 -8.5t-2.5 -13.5v-7.5t1 -6.5v-3t1 -3q0 -2 0.5 -3.5
t1.5 -3.5q2 -5 3.5 -10t3.5 -10q1 -2 2 -4.5t2 -4.5q1 -3 2 -5.5t2 -4.5q2 -4 3.5 -7.5t2.5 -6.5q1 -1 1.5 -2.5t1.5 -3.5q0 -1 0.5 -2.5t1.5 -3.5l129 -326l72 159l-88 199l-2 2l-1 4l-2 3l-1 3l-14.5 26.5t-15.5 25.5q-9 12 -22 19t-31 8v34h40q2 -1 3.5 -1.5t3.5 -0.5
q1 -1 3 -1h3h3.5h3.5q1 -1 3 -1h3q10 -1 19.5 -1.5t19.5 -0.5q3 0 6.5 -0.5t6.5 -0.5h6.5h6.5q5 0 10.5 0.5t10.5 1.5h5h6h3.5t2.5 1h3.5h2.5h3.5t2.5 1h3.5h2.5h3.5t2.5 1h3.5h2.5l40 1v-31l-15.5 -4t-13.5 -4q-7 -2 -10 -8t-3 -15q0 -7 1 -14.5t4 -15.5q2 -7 5 -14.5
l6 -15.5l2 -4l2 -5l25 -57l28 64l1 1l1 3q3 5 6 12l6 14q1 4 2 7.5t2 7.5q0 3 0.5 6.5t0.5 7.5q0 10 -3.5 16.5t-9.5 9.5q-7 3 -14.5 4.5t-15.5 1.5v34h40q2 -2 4.5 -2.5t5.5 -0.5h3h3q1 -1 2.5 -1h2.5h2h3q1 -1 2.5 -1h2.5h5h6q5 -1 10 -1.5t10 -0.5h1.5h1.5h5.5t5.5 1h5h6
q5 0 10.5 0.5t11.5 1.5q5 0 10.5 0.5t11.5 1.5l40 1v-31q-19 -2 -32.5 -6.5t-21.5 -12.5q-9 -9 -16.5 -19.5t-13.5 -24.5q-1 -4 -2.5 -7.5t-3.5 -6.5l-2 -4t-1 -3q-1 -2 -2 -3.5t-2 -3.5l-74 -163l89 -198l114 265q2 4 4 9t5 10l4 10.5l4 10.5l4 10.5t5 11.5l4 10.5l4 11.5
l2 6l2 6q2 4 4.5 9.5t3.5 11.5q2 6 3 12l2 12q0 12 -4.5 20t-12.5 12q-8 5 -17 7.5t-19 3.5l-4 2h-4v33h40q6 -2 12 -3t12 -1q6 -1 12.5 -1.5t13.5 -0.5h6h6q3 -1 5.5 -1h5.5h9h9q4 0 8.5 0.5t8.5 0.5l24 2l24 2l40 1v-33l-2 -1h-2l-2 -1h-2q-9 -2 -16 -3t-12 -3
q-6 -2 -11 -6t-10 -9l-4 -5l-4 -5q-6 -9 -11 -18t-10 -20l-10 -20.5l-10 -21.5q-4 -9 -7.5 -18t-7.5 -17q-4 -9 -7 -16.5l-6 -14.5l-138 -317q-6 -13 -10.5 -24.5t-9.5 -22.5l-8.5 -22.5t-9.5 -22.5v0v-1q-1 -4 -2.5 -7.5t-2.5 -6.5q-2 -4 -3 -7.5t-3 -6.5l-5.5 -12.5
t-4.5 -11.5h-40h-11l-114 250l-112 -250h-40h-11l-5 11l-206 512l-2 2v3q-1 2 -2.5 5.5t-3.5 7.5q-1 4 -2.5 7.5t-3.5 7.5q-6 16 -14 30.5t-18 27.5q-10 14 -23.5 20.5t-32.5 6.5l-2 2v0z" />
    <glyph glyph-name="Y" unicode="X" horiz-adv-x="633" 
d="M6 636v32h40q15 -3 30 -4.5t30 -1.5q5 0 10 -0.5t10 -0.5h10h10h11.5h10.5t10.5 0.5t11.5 0.5q8 0 16 0.5t17 0.5q8 1 16 1.5t16 1.5l40 1v-31h-14q-1 -1 -2 -1.5l-1 -0.5h-2h-2h-2h-1q-1 -1 -2 -1h-2q-6 0 -11 -1t-10 -3q-4 -2 -7 -5t-5 -8l-1 -1v-1v-2v-2v-6l1 -5
q2 -5 3.5 -9.5t3.5 -9.5q2 -4 5 -8.5t6 -8.5q2 -2 3.5 -4.5t2.5 -4.5q1 -1 1.5 -2t1.5 -2q0 -1 0.5 -2t1.5 -2l68 -110l60 91q2 1 4 3.5t4 5.5l4.5 6.5t4.5 7.5q1 1 1.5 2t1.5 2q0 1 0.5 2t1.5 2q2 2 3.5 4.5t2.5 4.5q2 5 4.5 9.5t4.5 8.5q2 5 3 8.5t2 7.5q0 9 -3.5 15.5
t-10.5 9.5t-14 5t-15 3h-4h-4h-4h-4v34h40q13 -3 26 -4.5t26 -1.5q3 0 5.5 -0.5t5.5 -0.5h11.5h10.5h9.5h9.5t9.5 0.5t9.5 0.5l28.5 2l28.5 2l40 1v-31q-25 -2 -45 -9.5t-35 -22.5t-29 -31.5t-27 -34.5q-1 -1 -2 -2.5t-1 -3.5q-1 -1 -2 -2.5t-2 -2.5t-2 -2.5t-1 -2.5
q-1 -2 -2 -3l-2 -2l-107 -156l104 -170q4 -8 8.5 -15.5t8.5 -15.5l10 -16.5t11 -16.5q11 -18 24.5 -34.5t28.5 -31.5t31.5 -23t35.5 -9v-29h-40q-16 0 -31.5 0.5t-31.5 1.5h-20.5t-20.5 1q-4 0 -7.5 -0.5t-6.5 -0.5h-7.5h-7.5q-12 -1 -23.5 -1.5t-22.5 -0.5h-8h-8h-40h-7.5
h-7.5v31h40l3 -1h-40h4q2 -1 4.5 -1h5.5h3.5t2.5 1h3.5h2.5q8 1 14.5 3t12.5 5t9.5 8.5t3.5 13.5q0 4 -2 10t-6 14l-8.5 17t-9.5 18l-4 7q-1 0 -1.5 1t-0.5 2q-1 0 -1.5 1t-0.5 2l-8 13.5l-8 12.5l-7.5 11t-5.5 9l-50 84l-96 -146l-1.5 -3t-0.5 -2q-1 -1 -1.5 -2t-1.5 -2
l-5 -5q-1 -3 -2.5 -5.5t-3.5 -4.5q-1 -3 -2.5 -5.5t-2.5 -4.5q-3 -4 -4.5 -9.5t-1.5 -10.5v1q0 -9 3 -15t9 -9q6 -4 13 -6t14 -3q4 -1 7.5 -1h7.5h3.5h3.5h3h3v-29h-40h-26.5t-27.5 1q-4 0 -8.5 0.5t-8.5 0.5t-8.5 0.5t-8.5 0.5t-8.5 -0.5t-8.5 -0.5t-8.5 -0.5t-8.5 -0.5
q-13 -1 -26.5 -1h-26.5h-40l-1 31q24 1 45 10.5t37 26.5q17 17 31.5 36t27.5 39l4 6l4 6q1 2 3 5l4 6t3.5 6t3.5 6q1 2 3 5l4 6l96 148l-110 177q-2 2 -4.5 5t-4.5 7l-4.5 6.5t-4.5 7.5q-11 18 -24 34t-27 31q-15 14 -33 21.5t-41 7.5v2v0z" />
    <glyph glyph-name="Z" unicode="Y" horiz-adv-x="578" 
d="M-30 636v32h40q8 -2 15 -3t13 -1q6 -1 13 -1.5t14 -0.5q7 -1 13.5 -1h13.5h9.5h8.5h8h8q3 0 7 0.5t8 0.5q8 0 15.5 0.5t14.5 1.5h8t8 1q3 0 7 0.5t8 0.5l40 1v-31q-2 -2 -4.5 -2.5t-4.5 -0.5h-2.5h-2.5q-2 -1 -3 -1h-2q-7 -1 -13 -3t-11 -5t-7.5 -7.5t-2.5 -12.5v1
q0 -8 1.5 -15.5t4.5 -13.5q3 -7 6 -13t7 -12q1 -1 1.5 -2t1.5 -2q0 -2 0.5 -3t1.5 -2t1.5 -2t1.5 -2q0 -2 0.5 -3t1.5 -2l90 -164l76 144q2 1 3.5 4l3.5 7t4.5 8.5t4.5 8.5l2 4l2 4q1 1 1.5 2l1.5 3q0 1 0.5 2.5t1.5 2.5l2 6t3 6q1 2 2 5l2 6q2 6 3 11.5t1 9.5v3q-1 7 -4 12
t-9 8t-12 4.5t-12 2.5h-2t-2 1h-2h-2h-2h-1h-2h-2v34h40q7 -2 13.5 -3t13.5 -1q7 -1 14 -1.5t14 -0.5q5 -1 10.5 -1h11.5h19.5t19.5 1l22.5 2l22.5 2l40 1v-31q-26 -2 -45.5 -10.5t-32.5 -22.5t-24 -30.5t-21 -36.5q-2 -4 -4 -7.5t-4 -7.5l-4 -8l-4 -8l-121 -232v-109v-7v-6
v-2.5v-2.5v-3v-3q0 -1 -0.5 -2.5t-0.5 -2.5v-3v-3v-2.5v-2.5v-3v-3q0 -22 3 -37.5t9 -26.5q6 -10 21 -15.5t38 -5.5l-40 1l12 1h40v-35h-40h-31.5t-30.5 1q-13 1 -27.5 1.5t-28.5 0.5h-6.5h-6.5q-4 -1 -7.5 -1h-6.5q-8 -1 -16 -1.5t-16 -0.5h-8h-7h-8h-8h-40v35h40l4 -1h-40
h4q14 -1 26 2t23 7q11 5 17.5 15t7.5 26v4.5t1 5.5v4.5v4.5v10v10v41v112l-154 276q-9 16 -19.5 30t-21.5 26q-11 11 -26 18t-35 8l-2 2v0z" />
    <glyph glyph-name="bracketleft" unicode="Z" horiz-adv-x="635" 
d="M117 682h11q2 -4 4.5 -6t4.5 -4l5 -2.5t6 -2.5l12 -2.5t14 -2.5q8 -1 16 -1.5t17 -0.5q5 -1 9.5 -1h8.5h9.5h9.5h9.5h9.5h15.5t14.5 1h15.5h14.5h7.5h7.5h6.5h7.5h7.5t7.5 1h7.5h7.5h22t23 1h22h22h22.5t22.5 1h22.5h22.5l40 1l6 -10l-17.5 -23.5l-16.5 -22.5l-8 -12
t-8 -11l-8 -12l-8 -12q-1 -2 -2.5 -4t-2.5 -4q-2 -3 -3 -5t-3 -4l-6 -8t-5 -8q-1 -1 -2 -3t-2 -3q-2 -2 -3 -3.5t-2 -3.5l-4 -6l-4 -6l-314 -460h155q0 -1 0.5 -1h1.5q1 -1 1.5 -1h0.5q36 2 64.5 6.5t49.5 11.5q24 9 44 38t35 78l40 1l31 -7q-1 -5 -2 -8.5t-1 -7.5
q-1 -4 -2 -7.5t-2 -6.5q-1 -7 -2.5 -14t-3.5 -14q-4 -14 -7 -28l-6 -28t-5.5 -28t-4.5 -27h-40h-6h-2h-1h-2h-2h-2h-1h-2h-2h-6l-106 2l-61 1q-3 -1 -6.5 -1.5t-6.5 -0.5h-6.5h-6.5h-14.5h-15.5h-8h-8q-4 -1 -7.5 -1h-7.5h-14.5h-15.5l-120 1q-2 -1 -4.5 -1h-4.5h-40h-4h-4
h-4.5h-4.5h-4h-4l-8 13l10.5 15l11.5 16l12 16l12 16q3 4 6 7.5t6 7.5q2 4 5 8l6 8l6 8t6 9q2 4 5 8l6 8l326 482h-92h-49q-35 -2 -64.5 -6.5t-52.5 -12.5t-39.5 -32t-26.5 -64l-40 1l-31 6l31 168h40v0v0z" />
    <glyph glyph-name="backslash" unicode="[" horiz-adv-x="326" 
d="M117 701h176v-33h-105v-335v-511h105v-33h-40h-176v400v512h40v0v0z" />
    <glyph glyph-name="bracketright" unicode="\" horiz-adv-x="456" 
d="M101 714l183 -409l228 -511l-42 -19h-40l-183 408l-227 512l41 19h40v0v0z" />
    <glyph glyph-name="asciicircum" unicode="]" horiz-adv-x="326" 
d="M209 -211h-176v33h105v334v512h-105v33h40h176v-401v-511h-40v0v0z" />
    <glyph glyph-name="underscore" unicode="^" horiz-adv-x="541" 
d="M525 286h-39l-182 283l-189 -283h-40h-100l277 415h40h6l267 -415h-40v0v0z" />
    <glyph glyph-name="grave" unicode="_" horiz-adv-x="541" 
d="M62 -88h455v-43h-40h-455v43h40v0v0z" />
    <glyph glyph-name="a" unicode="`" horiz-adv-x="541" 
d="M303 662l70 -172l-21 -10h-40l-124 162h-1l-1 2l-4 6l-1 5l2 4q2 0 4 0.5t5 0.5l71 2h40v0v0z" />
    <glyph glyph-name="b" unicode="a" horiz-adv-x="455" 
d="M429 52l12 -19q-10 -9 -20.5 -16t-21.5 -13q-12 -4 -24 -7t-24 -3h-40q-15 0 -25 4t-15 13q-1 3 -2.5 6t-3.5 6l-10.5 -8l-11.5 -8q-16 -8 -33 -13t-36 -5h-40q-21 0 -37.5 6.5t-30.5 19.5q-13 14 -19.5 31t-6.5 37q0 21 7 36.5t21 25.5t30 18t33 14q2 1 4.5 2t5.5 2
q2 1 4.5 2t5.5 2l107 41v33v3.5v4.5q-1 3 -1 5.5v5.5q0 6 -0.5 12t-1.5 13q-1 13 -5.5 25t-10.5 23q-4 7 -9 12t-13 8q-2 -1 -4 -1.5t-3 -0.5q-2 -1 -4 -1.5t-4 -1.5q-9 -4 -17 -8.5t-16 -10.5q-7 -6 -11.5 -12.5t-4.5 -14.5q-1 -12 -5 -19.5t-10 -11.5t-15 -6.5t-21 -3.5
l-40 1l-7 2q-1 1 -1.5 2.5t-0.5 3.5q0 11 2.5 20.5t7.5 16.5q5 8 12 14.5t16 12.5q5 3 9.5 6t9.5 7l10.5 8l11.5 8q5 3 9.5 6t8.5 6l10 6l10 6l12.5 6l13.5 6q7 2 13.5 3.5t12.5 1.5l40 1q32 -1 53.5 -12t31.5 -33t15 -46.5t6 -50.5v-3v-4v-12.5v-10.5q-1 -6 -1 -11.5v-10.5
v-22v-22v-12v-11q-1 -6 -1 -11.5v-10.5v-22v-22v-4v-4v-4v-4q1 -9 3 -16.5t5 -15.5q1 -1 1.5 -2.5t1.5 -3.5l0.5 0.5t1.5 0.5l0.5 0.5l0.5 0.5l4 4l5 3v1h40v0zM258 183q-2 -2 -4 -2.5t-4 -1.5q-3 -1 -5 -1.5t-4 -1.5q-16 -6 -30.5 -14t-28.5 -17q-13 -10 -19.5 -22.5
t-6.5 -29.5q0 -12 4 -22t12 -18q5 -5 10 -8.5t11 -5.5l12 4t11 6q10 7 19 14.5l18 15.5l2 3l3 3v98v0z" />
    <glyph glyph-name="c" unicode="b" horiz-adv-x="542" 
d="M186 390q11 6 23 11.5l24 10.5q14 5 30 8t34 3l40 1q35 -1 63 -14.5t49 -39.5t34 -54.5t18 -60.5q0 -5 0.5 -10t1.5 -10v-5.5t1 -4.5v-5.5v-4.5q0 -48 -15.5 -87.5t-47.5 -71.5q-31 -32 -70.5 -47.5t-87.5 -15.5h-40h-6.5h-6.5q-4 1 -7 1h-6t-6 0.5t-6 0.5q-4 1 -7 1h-6
l-13.5 2t-12.5 1h-2h-2q-1 1 -2 1h-2t-2 -0.5t-2 -0.5q-2 0 -3 -0.5t-2 -0.5q-4 0 -8.5 -0.5t-8.5 -1.5l-8 -2l-8 -2h-40v123v386l-1 67q0 15 -2.5 27t-7.5 21q-5 8 -16.5 12.5t-28.5 4.5v28q16 2 31 7.5t29 12.5l28.5 14.5t28.5 16.5l40 1l19 -8q-3 -27 -5 -52.5t-3 -51.5
q-1 -25 -1.5 -50.5t-0.5 -51.5v-109v0zM186 336v-144v-3v0v-9.5v-9.5v-4t1 -4v-5v-4q2 -24 6.5 -45t13.5 -41q8 -16 22.5 -25.5t36.5 -12.5q29 3 50.5 15.5t37.5 34.5q18 26 27.5 55.5t9.5 62.5v7v1v2v1v2q-2 29 -12 56t-28 51q-15 20 -35.5 32t-46.5 16q-8 -1 -16.5 -3
t-16.5 -5q-13 -4 -25.5 -9.5t-24.5 -12.5v1z" />
    <glyph glyph-name="d" unicode="c" horiz-adv-x="438" 
d="M408 89l17 -18q-14 -19 -31.5 -33t-38.5 -25q-21 -10 -42.5 -15t-44.5 -5h-40q-46 0 -82 15.5t-60 46.5q-25 32 -37 70t-12 81q0 45 15 84t45 70q30 32 68 47.5t84 15.5l40 1q5 -1 11.5 -1.5t14.5 -2.5q8 -1 16 -3l16 -4q14 -4 26 -9.5t24 -12.5q11 -7 17 -15t6 -17
q-1 -4 -3 -8.5t-7 -9.5q-4 -4 -8.5 -7t-9.5 -5l-6 -1h-40h-5l-1 1q-2 -1 -4 -1t-4 2q-3 1 -5 2.5t-4 4.5q-4 5 -9 10.5l-10 11.5q-6 6 -13 11.5t-15 10.5l-9 4.5t-10 3.5q-20 -4 -37 -14.5t-30 -27.5q-17 -22 -26.5 -46t-11.5 -50q0 -1 -0.5 -2l-0.5 -1v-2v-2v-5v-11t1 -10
q0 -5 0.5 -10.5t1.5 -10.5q5 -29 15.5 -55.5t28.5 -50.5q15 -20 35 -31.5t45 -15.5q11 2 20.5 4.5t18.5 6.5q14 6 26.5 14t24.5 18v2h40v0z" />
    <glyph glyph-name="e" unicode="d" horiz-adv-x="555" 
d="M512 40v-28l-30 -4l-30 -4l-30 -6t-29 -8h-40l-14 17v3v5v3t1 3q0 1 0.5 2.5t0.5 2.5v2q-4 -4 -8 -6.5t-8 -4.5q-2 -1 -4 -2.5t-4 -2.5q-18 -10 -37 -14t-39 -4h-40q-36 0 -63.5 12.5t-47.5 38.5q-19 26 -31.5 55t-17.5 60q-1 3 -1.5 6t-0.5 6q-1 2 -1 5v6q-1 5 -1 10.5
v11.5q0 44 14.5 82.5t44.5 70.5q29 32 66.5 48.5t82.5 16.5l40 1q7 -1 13.5 -1.5t13.5 -1.5q6 -1 12.5 -2.5t13.5 -3.5q1 0 2.5 -0.5t2.5 -0.5q1 -1 2.5 -1.5t2.5 -0.5v96l-1 61q0 16 -2.5 28t-7.5 20q-4 8 -15.5 12t-29.5 4v28q16 2 31 7.5t29 12.5q14 8 28.5 15.5
t27.5 16.5l40 1l19 -9q-3 -26 -4.5 -51t-2.5 -49q-1 -25 -1.5 -49.5t-0.5 -49.5v-302v-58v-21.5v-19.5q0 -10 1 -18t2 -15q2 -12 6.5 -19t11.5 -9t15 -3.5t18 -1.5v1zM347 100v3v5v3v3q0 1 0.5 2.5t0.5 2.5v4.5v5.5v3v3v2.5v2.5v9.5v8.5v9.5v9.5v15.5v14.5q-1 8 -1 15.5
v14.5q0 15 -0.5 30.5t-1.5 31.5q-1 21 -9.5 37.5t-23.5 28.5q-11 8 -24.5 14t-28.5 8q-25 -4 -45 -16.5t-34 -33.5q-16 -25 -24.5 -53.5t-8.5 -59.5v-10t1 -10v-4.5t1 -4.5q0 -3 0.5 -5.5t0.5 -4.5q5 -26 15 -50t26 -45q14 -18 31.5 -28.5t39.5 -13.5q10 2 19.5 5t18.5 8
q14 7 25.5 16t21.5 21v2v0z" />
    <glyph glyph-name="f" unicode="e" horiz-adv-x="426" 
d="M392 84l14 -20q-15 -18 -32.5 -31.5t-37.5 -22.5q-20 -8 -41 -12.5t-43 -4.5h-40q-37 0 -67.5 14t-53.5 42q-23 29 -36.5 60.5t-16.5 65.5v3v3q-1 1 -1 2.5v2.5v6v6q0 44 13 83t39 73q26 35 63 52t83 17l40 1q26 -1 48.5 -10t41.5 -27t28.5 -39.5t9.5 -47.5q0 -13 -2 -22
t-7 -13q-4 -4 -12.5 -6t-20.5 -2l-40 1l-176 1q-1 -5 -1.5 -9.5t-0.5 -8.5q-1 -4 -1 -7.5v-7.5q0 -34 10 -64t31 -57q17 -23 41 -36.5t52 -16.5q6 1 10.5 1.5t9.5 2.5q3 0 5.5 1t4.5 2q12 5 23.5 10.5t22.5 12.5v2h40v0zM152 293h123q1 -1 2.5 -0.5t2.5 1.5q1 0 2.5 0.5
t2.5 0.5q5 2 7.5 7t2.5 13q0 15 -5.5 28t-16.5 23q-7 7 -15.5 11.5t-17.5 6.5q-15 -3 -27 -9.5t-22 -17.5q-13 -14 -22.5 -30t-16.5 -35v1z" />
    <glyph glyph-name="g" unicode="f" horiz-adv-x="356" 
d="M218 401h138l-15 -41h-123v-196v-9.5v-8.5v-8v-8q-1 -4 -1 -8v-8v-8v-8q0 -18 2.5 -30.5t6.5 -20.5q3 -6 11 -9.5t19 -5.5l1 1h40v-33h-40h-13.5h-13.5t-13.5 0.5t-12.5 1.5h-14h-13h-2.5h-2.5h-3h-3h-4h-4h-4h-4q-10 -1 -20 -1.5t-20 -0.5h-3h-3h-3.5h-3.5h-40h-3h-3
h-3.5h-3.5v33q20 -2 33 1.5t19 10.5q6 8 9 21t3 32v8v8v8v8q-1 4 -1 8v8v8v8v198h-63l9 34q15 1 26 4.5t17 8.5t10 15t5 26q5 53 21 97.5t43 81.5q27 38 69 56.5t100 18.5l40 1q2 -1 3.5 -1h3.5q2 -1 4 -1h5q5 -1 10.5 -1.5t10.5 -2.5q8 -2 16 -5t15 -8q7 -4 10.5 -9.5
t3.5 -12.5v-3l-1 -3q-1 -7 -4.5 -12.5t-8.5 -10.5t-10.5 -8.5t-11.5 -5.5l-6 -1h-40h-6q-2 -1 -4 -0.5t-4 1.5q-3 1 -5 2.5t-4 3.5l-8.5 8.5t-9.5 8.5l-6 4t-5 5l-6 4l-6 4t-6 3.5t-6 2.5q-18 -4 -31.5 -15t-22.5 -28q-12 -22 -19.5 -46.5t-10.5 -51.5q-2 -13 -3.5 -26.5
t-1.5 -27.5q-1 -13 -1 -25v-22v-22v0v0z" />
    <glyph glyph-name="h" unicode="g" horiz-adv-x="477" 
d="M467 390v-35h-40l-55 1q4 -10 7 -18.5t5 -16.5t3.5 -16.5t1.5 -16.5q0 -34 -12.5 -58.5t-37.5 -41.5q-25 -16 -52 -24.5t-56 -8.5l-2 1h-1q-1 -2 -2 -3t-2 -1l-2 -2l-2 -2q-2 -1 -4 -2.5t-4 -3.5q-6 -4 -10.5 -9.5t-9.5 -10.5q-4 -6 -6.5 -12t-2.5 -12q0 -8 3 -13.5
t9 -8.5t12.5 -5t13.5 -3h1.5t1.5 -1l29 2h40l5 -1h5q2 -1 4.5 -1h5.5q2 -1 5 -1h6h10.5h11.5q21 -1 40 -6.5t37 -13.5t27 -25t9 -42q0 -36 -14.5 -66.5t-43.5 -54.5t-60.5 -40.5t-66.5 -25.5q-8 -2 -16.5 -3.5t-16.5 -2.5t-15.5 -1.5t-15.5 -0.5h-40q-29 0 -54.5 8t-46.5 25
q-21 16 -31.5 40t-10.5 55q0 12 3.5 23t10.5 21l15.5 19.5t16.5 18.5l3.5 3.5t3.5 2.5l3 3l3 3l3.5 3.5l3.5 3.5l3 3t3 4q-7 5 -12.5 11t-10.5 13q-4 7 -6.5 14.5t-2.5 15.5v2v2v1v2l2 7l77 74q-21 7 -38 18.5t-31 26.5q-13 15 -19.5 35t-6.5 44q0 32 12 57t37 43
q24 18 51 27t56 10l40 1h1h2q2 -1 3.5 -1h2.5q2 -1 3.5 -1h2.5h3.5h2.5q2 -1 3.5 -1h2.5q11 -1 20.5 -4t19.5 -7t18.5 -9.5t15.5 -12.5l79 2h40v0v0zM158 3q-2 -3 -4 -6.5t-3 -6.5q-2 -3 -3.5 -6.5t-3.5 -6.5q-4 -8 -6.5 -17t-3.5 -19q0 -27 10 -47.5t31 -33.5
q17 -11 34.5 -18t36.5 -9q5 1 9.5 1.5t8.5 1.5q17 4 32.5 11t29.5 18q14 10 21.5 24.5t8.5 32.5q0 25 -10.5 40.5t-30.5 22.5t-42 11t-46 4h-8h-8h-4h-3h-3.5h-3.5q-10 0 -20 0.5t-19 1.5v1zM276 280v3v4q-1 2 -1 4.5v4.5t-0.5 4.5t-0.5 5.5q-1 2 -1 4.5v4.5q-3 15 -9 28.5
t-14 26.5q-6 9 -14 14.5t-18 9.5q-10 -4 -18.5 -10t-15.5 -15q-10 -14 -15 -29t-6 -32v-3v-4v-8.5v-7.5t1 -8l2 -8q2 -15 7.5 -29t14.5 -27q6 -10 14.5 -16t18.5 -8q11 2 20 8.5t16 16.5q9 14 14 30t5 34v2v0z" />
    <glyph glyph-name="i" unicode="h" horiz-adv-x="575" 
d="M210 381l22 13.5t24 12.5q15 8 30 12t30 4l40 1q41 -1 66.5 -13.5t37.5 -36.5t18 -53t6 -63v-10v-10q-1 -5 -1 -10v-10v-19.5v-19.5v-20v-20v-19.5v-19.5v-4v-4v-2v-1v-2v-2q0 -7 1 -13.5l2 -12.5t3 -10.5t5 -6.5q2 -3 5 -4.5l7 -3.5q3 -1 6.5 -1.5t7.5 -0.5q2 -1 4.5 -1
h5.5l-40 1q2 -1 4.5 -1h4.5l3 2h40v-33h-40h-25.5t-24.5 1q-2 0 -4.5 0.5t-5.5 0.5h-2h-3q-3 0 -7 0.5t-8 0.5q-3 0 -6.5 -0.5t-7.5 -0.5t-7.5 -0.5t-7.5 -0.5q-6 0 -12 -0.5t-12 -0.5h-13h-12h-40v33q20 -2 33.5 1t20.5 9t10.5 19t3.5 33v4.5v5.5v4.5v5.5q0 1 -0.5 2
t-0.5 2v1v2v2v2v1v2v14v14v7.5v7.5q0 3 0.5 6.5t0.5 7.5v14v14v7.5v7.5v6.5v7.5v4v4q-1 2 -1 4v4v4.5v4.5q-1 2 -1 4.5v4.5q-1 17 -6.5 33t-13.5 31q-7 11 -17.5 18.5t-24.5 9.5q-11 -1 -22 -4.5t-21 -8.5q-15 -7 -29 -17t-26 -21v-154v-9.5v-8.5v-8v-8q-1 -4 -1 -8v-8v-8
v-8q0 -18 2.5 -30.5t6.5 -20.5q5 -8 17 -12t31 -4l-40 1l6 1h40v-33h-40h-12h-12t-12 0.5t-12 1.5h-13h-12h-4.5h-4.5h-3h-3h-3.5h-3.5q-10 -1 -19.5 -1.5t-18.5 -0.5h-7.5h-6.5h-40h-6h-6v33q21 -2 35 1.5t20 10.5t9 20.5t3 34.5v64v342l-1 62q0 16 -3 28.5t-8 20.5
t-16.5 12t-29.5 4v28q16 2 31.5 7.5t30.5 12.5t29.5 14.5t28.5 16.5l40 1l17 -8q-1 -14 -2.5 -27t-2.5 -25q-1 -13 -1.5 -25t-0.5 -24q-1 -13 -1.5 -25.5t-0.5 -24.5v-25.5v-24.5v-123v0z" />
    <glyph glyph-name="j" unicode="i" horiz-adv-x="316" 
d="M48 354l1 26q16 3 31.5 8t30.5 12t29.5 14.5t28.5 16.5l40 1l18 -7l-2 -15.5l-2 -14.5l-2 -14t-1 -14q-1 -7 -1.5 -14.5t-0.5 -14.5v-14v-14l1 -85v-18v-16v-14.5v-15.5q-1 -8 -1 -16v-16v-8v-7v-8v-8q0 -18 2.5 -30.5t6.5 -20.5q5 -8 17 -12t31 -4l-40 1l5 1h40v-33h-40
h-25t-24 1h-6t-6 1h-6h-6h-2.5h-2.5h-2.5h-2.5h-13h-12q-7 -1 -13.5 -1.5t-12.5 -0.5h-13.5h-12.5h-40v33q21 -2 35 1.5t20 10.5t9 20.5t3 34.5v22.5v23.5v23v24v11.5v11.5q-1 5 -1 11v12v22.5v23.5q0 17 -3 30t-8 21t-17 12t-30 4v2v0zM222 648q0 -11 -3.5 -19.5
t-11.5 -14.5q-7 -7 -15.5 -10t-17.5 -3l-40 1q-9 -1 -17 2t-15 10q-7 6 -10.5 14t-3.5 17q0 10 3.5 18.5t10.5 15.5q8 8 16 11.5t18 3.5l40 1q10 -1 18 -4.5t15 -11.5q6 -7 9.5 -15.5t3.5 -16.5v1z" />
    <glyph glyph-name="k" unicode="j" horiz-adv-x="280" 
d="M21 -184l-14 24l18.5 13t15.5 12t13 12t11 12q11 13 18 27.5t9 29.5t3.5 34.5t2.5 41.5v2t1 2v2.5v2.5v3v3v2.5v2.5v9.5v8.5v4.5t1 5.5v4.5v5.5v4.5v5.5v4.5v4.5v4.5v5.5v4.5v4.5v114l-1 56q0 15 -2.5 27t-7.5 20t-16.5 12.5t-29.5 4.5l1 28q16 4 31 9t29 12
q14 6 28.5 14t28.5 17l40 1l17 -8q-2 -16 -3.5 -30t-2.5 -28t-1.5 -28.5t-0.5 -28.5l1 -78v-148q0 -44 -2.5 -75.5t-7.5 -53.5q-4 -23 -17.5 -43t-34.5 -38q-8 -7 -17.5 -14t-20.5 -14q-10 -7 -23 -14.5l-27 -15.5h-40v0v0zM217 649q0 -11 -3.5 -19.5t-10.5 -15.5t-15.5 -10
t-18.5 -3l-40 1q-9 -1 -17 2t-15 10q-7 6 -10 14t-3 18t3.5 18.5t10.5 15.5t15 10.5t18 3.5l40 1q10 -1 18 -4.5t15 -11.5q6 -7 9.5 -15t3.5 -16v1z" />
    <glyph glyph-name="l" unicode="k" horiz-adv-x="524" 
d="M273 33v-33h-40h-6h-6h-7h-6h-6t-6 1q-4 0 -7 0.5t-6 0.5h-13.5h-12.5h-0.5h-1.5h-1.5h-0.5h-1.5h-0.5h-1.5h-1.5h-12h-12q-3 0 -6 -0.5t-6 -0.5q-4 -1 -7 -1h-6h-12h-12h-40v33q20 -2 33.5 1t19.5 10t9.5 20.5t3.5 33.5v8v8v8v8q-1 4 -1 8v8v8v8v344l-1 62q0 16 -2.5 28
t-7.5 20t-16.5 12.5t-28.5 4.5v28q16 2 31 7.5t29 12.5l28.5 14.5t28.5 16.5l40 1l19 -8q-1 -14 -2.5 -27t-2.5 -25l-2 -25t-1 -24q-1 -13 -1.5 -25.5t-0.5 -24.5v-25.5v-24.5v-340v-62q0 -19 2 -32.5t6 -21.5q4 -9 16 -13t32 -4l-40 1l7 1h40v0v0zM271 385v33h40
q5 -2 10.5 -3t11.5 -1h12h12q4 -1 8 -1h8h8.5h8.5t8.5 0.5t8.5 0.5q11 0 22.5 0.5t22.5 1.5l40 1v-32q-28 -2 -51.5 -10t-43.5 -23t-39.5 -31.5t-37.5 -34.5l-3 -3l-3 -3q-3 -4 -6 -7l-6 -6l-2.5 -2.5l-2.5 -2.5l-3 -3t-3 -2l100 -131q2 -4 3.5 -6.5t3.5 -4.5q1 -3 3 -5.5
t3 -4.5l6.5 -8.5t7.5 -8.5q8 -12 17.5 -22t19.5 -18q11 -8 24.5 -12.5t31.5 -6.5v-29h-40h-8h-8h-4h-3h-4h-4h-2.5t-3.5 1h-2.5h-3.5h-2.5h-2.5q-2 -1 -3 -1h-3h-4h-4h-4h-4h-40h-8h-8l-38.5 58.5t-40.5 57.5l-42.5 56.5l-43.5 55.5l85 87q2 1 3.5 2.5t3.5 2.5q2 2 4.5 4
t4.5 4t3 3.5t3 2.5q1 2 2.5 3.5l2.5 2.5q3 3 5.5 6t4.5 6q0 1 0.5 2t1.5 2l0.5 1t0.5 2t0.5 2t0.5 2q1 0 1 1v2v3q0 2 -1.5 5t-4.5 4q-1 1 -3 1.5t-3 1.5q-2 1 -3.5 1.5t-3.5 0.5l-6 1h-5l-6 1v0v0z" />
    <glyph glyph-name="m" unicode="l" horiz-adv-x="307" 
d="M274 33v-33h-40h-24t-24 1q-3 0 -6.5 0.5t-7.5 0.5t-7.5 0.5t-6.5 0.5q-4 0 -8 -0.5t-8 -0.5t-7.5 -0.5t-7.5 -0.5q-13 -1 -25.5 -1h-25.5h-40v33q21 -2 34 2t19 11q5 8 8 21.5t3 32.5v64v343l-2 61q0 14 -2.5 26t-7.5 21q-4 9 -15.5 13.5t-28.5 4.5l-1 28q16 2 31 7.5
t30 12.5l28.5 14.5t27.5 16.5l40 1l19 -8q-3 -26 -5 -51t-3 -50t-1 -49.5v-49.5v-341v-10.5v-9.5v-8v-8q0 -2 -0.5 -4t-0.5 -4v-5v-4v-4v-4v-5v-4q0 -17 2.5 -29t6.5 -20q5 -7 16.5 -10.5t30.5 -3.5l-40 1l9 1h40v0v0z" />
    <glyph glyph-name="n" unicode="m" horiz-adv-x="837" 
d="M460 374l14.5 8.5l14.5 8.5q4 2 7.5 4.5t7.5 4.5q12 7 24 12t25 8q3 0 6 0.5t7 1.5h3.5t3.5 1h3h3l40 1q38 -1 63.5 -13t38.5 -36t19.5 -52t6.5 -61v-20.5v-21.5v-20v-20q0 -5 -0.5 -10t-0.5 -10v-11v-10v-10v-10v-11v-10v-5v-5q0 -8 1 -15t2 -13t3 -10.5t5 -7.5
q2 -3 5 -4.5t7 -2.5q3 -1 6.5 -2t7.5 -1q2 0 3 -0.5t3 -0.5h2.5h2.5l-40 1q2 -1 4.5 -1h4.5l4 2h40v-33h-40h-6h-6h-6h-5q-9 0 -18 0.5t-18 1.5h-6h-6h-4.5h-4.5h-6h-6q-4 -1 -7 -1h-6h-3h-3q-2 -1 -3.5 -1h-3.5h-6h-6h-3h-3h-3.5h-3.5h-40h-6h-6v33q24 -2 38 2t18 11
q4 8 6 21t2 31v16.5v16.5v16.5v17.5q-1 8 -1 16v17v16.5v16.5v3.5v3.5v3v3v6.5v7.5q-1 21 -5 40t-12 37q-6 14 -18 23t-31 12q-10 -2 -20 -5.5t-19 -8.5q-13 -7 -26 -15t-25 -17v-4.5v-4.5v-2t1 -2v-2v-2v-4.5v-4.5v-4v-4v-188v-6v-4v-2v-1v-2v-2q0 -7 1 -13.5l2 -12.5
t3 -10.5t5 -6.5q2 -3 5 -4.5l7 -3.5q3 -1 6.5 -1.5t7.5 -0.5q2 -1 4.5 -1h5.5l-40 1q2 -1 4.5 -1h4.5l7 2h40v-33h-40h-6h-6h-3h-3h-3.5h-3.5h-6h-6h-2.5t-3.5 1h-2.5h-3.5h-6t-6 1h-7h-6h-0.5h-1.5h-1.5h-0.5h-0.5h-1.5h-1.5h-0.5h-12h-11q-6 -1 -12 -1.5t-12 -0.5h-12h-12
h-40v33q19 -2 31 1.5t18 10.5q5 8 8 20t3 29v18.5v19.5v19.5v19.5q-1 9 -1 18.5v19.5v19.5v19.5q0 24 -3.5 45t-10.5 40q-5 15 -18 24t-33 13q-10 -2 -19 -5t-17 -7q-13 -7 -25.5 -14.5t-23.5 -15.5v-164v-9.5v-8.5v-8v-8q-1 -4 -1 -8v-8v-8v-8q0 -18 2.5 -30.5t6.5 -20.5
q5 -8 17 -12t31 -4l-40 1l4 1h40v-33h-40h-25.5t-24.5 1h-6t-6 1h-6h-6h-2.5h-2.5h-2.5h-2.5h-6h-6q-4 -1 -7 -1h-6h-3h-3q-2 -1 -3.5 -1h-3.5h-6h-6h-3h-3h-3.5h-3.5h-40h-6h-6v33q22 -2 36 1t20 10t9 21t3 35v23.5v23.5q-1 11 -1 22.5v23.5v23.5v23.5q-1 11 -1 22.5v23.5
q0 17 -2 29t-7 20q-4 8 -15.5 12.5t-29.5 4.5v29q15 2 29.5 7.5t28.5 12.5l28 14.5t27 15.5l40 1l20 -8q-1 -5 -1.5 -9t-0.5 -8q-1 -4 -1.5 -8t-0.5 -7v-1.5v-2.5q2 2 4.5 3t4.5 3q2 1 4.5 2.5t5.5 2.5q8 5 16 8.5t17 6.5q5 2 10 3.5t11 2.5q5 2 10.5 2.5t10.5 0.5l40 1
q19 -1 36.5 -5.5t33.5 -13.5q11 -6 19.5 -14t15.5 -18v1z" />
    <glyph glyph-name="o" unicode="n" horiz-adv-x="583" 
d="M219 318v-154v-5.5v-4.5q-1 -2 -1 -4v-4v-7.5v-7.5v-8v-8v-7.5v-7.5q0 -18 2 -31t6 -21q4 -9 16 -13t32 -4l-40 1l8 1h40v-33h-40h-3h-3h-3.5h-3.5h-6h-6q-10 0 -20 0.5t-19 1.5h-3.5h-3.5h-3.5h-3.5h-4.5h-4.5h-6h-6h-7h-6q-7 -1 -13.5 -1.5t-12.5 -0.5h-12h-12h-40v33
q20 -2 33.5 1t20.5 10q7 6 10.5 19.5t3.5 34.5v22.5v23.5v12v12q-1 6 -1 12v12v11.5v11.5q-1 5 -1 11v12v12v12v11v12q0 18 -2 31.5t-7 20.5q-4 8 -16 11.5t-30 3.5v28q15 4 29.5 9.5t28.5 12.5q14 6 28.5 13.5t28.5 15.5l40 1l19 -8q-1 -10 -2 -19l-2 -18v-1.5v-0.5v-1.5
v-1.5l20 12l21 12q17 8 33.5 12.5t34.5 4.5l40 1q35 -1 58.5 -12.5t36.5 -34.5q14 -22 20.5 -48.5t6.5 -56.5v-22.5v-22.5v-22v-22q-1 -11 -1 -22.5v-22.5v-22v-22v-3v-3q0 -8 0.5 -15.5t1.5 -13.5q2 -6 4 -10.5t5 -6.5q3 -3 6.5 -5t7.5 -3q2 -1 4 -1.5t5 -0.5q2 -1 4 -1h4
l-40 1q2 -1 4 -1h4h4h4l2 2h40v-33h-40h-3h-3h-3.5h-3.5h-6h-6h-7h-6h-2.5t-3.5 1h-2.5h-3.5h-6.5t-6.5 1h-7h-6h-2h-3h-1.5h-2.5h-6h-6q-3 -1 -6 -1h-6h-3.5h-3.5q-1 -1 -2.5 -1h-3.5h-6h-6h-6h-6h-40h-6h-6v33q22 -2 35.5 1.5t19.5 10.5q6 8 9 21.5t3 33.5v16.5v17.5v9v9
v8.5v8.5q-1 8 -1 16.5v17.5v9v9v8.5v8.5v4v4q-1 2 -1 4v4v4v5v4v4q-2 19 -7.5 36t-13.5 33q-7 11 -17.5 19t-25.5 10q-11 -1 -21.5 -5t-20.5 -9q-14 -8 -27.5 -17.5t-25.5 -20.5v1z" />
    <glyph glyph-name="p" unicode="o" horiz-adv-x="549" 
d="M512 207q0 -47 -16.5 -85.5t-49.5 -68.5q-33 -31 -71.5 -45.5t-82.5 -14.5h-40q-48 0 -86.5 15t-68.5 46t-45 70t-15 86t16.5 85.5t49.5 69.5t72 46.5t85 15.5l40 1q47 -1 85.5 -17.5t67.5 -48.5q29 -33 44 -72t15 -84v1zM394 198v3.5v5.5q-1 2 -1 5v6t-0.5 6t-0.5 6
q-1 2 -1.5 5t-0.5 6q-5 28 -16.5 53.5t-28.5 48.5q-14 20 -33 31t-43 15q-24 -4 -43.5 -16t-33.5 -32q-17 -25 -26 -51.5t-9 -55.5v-1v-1v-15.5t1 -15.5q1 -7 2.5 -14.5t2.5 -15.5q5 -27 16 -51.5t27 -47.5q14 -19 32 -30t42 -14q26 4 46.5 16.5t34.5 34.5q16 26 24 54.5
t9 59.5v2v2v1v0z" />
    <glyph glyph-name="q" unicode="p" horiz-adv-x="561" 
d="M212 2v-125q0 -18 2.5 -31t6.5 -21q5 -8 16.5 -12.5t30.5 -4.5h8v-33h-40q-7 1 -13.5 1.5t-12.5 0.5q-6 1 -12 1.5t-12 0.5h-6.5h-6.5q-4 1 -7 1h-6h-2.5h-2.5h-3h-3h-6t-6 -1h-6h-6q-7 0 -13.5 -0.5t-12.5 -1.5h-6t-6 -1q-4 0 -7 -0.5t-6 -0.5h-40v33q19 0 32 2.5
t20 7.5q8 5 11.5 18.5t3.5 34.5v8.5v9.5v8v8q0 2 -0.5 4t-0.5 4v5v4v4v4v5v4v286l-1 63q0 14 -2 26t-5 20q-4 8 -14 12t-27 5l-3 2h-3v27q15 3 29.5 8.5t28.5 12.5l28.5 14.5t27.5 15.5l40 1l20 -8q-1 -5 -1.5 -9t-0.5 -7q-1 -4 -1.5 -7.5t-0.5 -6.5v0v0v-1v0q3 2 5.5 3.5
t5.5 3.5q3 1 5.5 3t5.5 3q15 8 32.5 12.5t36.5 4.5l40 1q42 -1 74.5 -17t55.5 -48q23 -31 35 -66.5t12 -74.5v-3v-5q-1 -41 -16 -78.5t-43 -71.5t-63.5 -50.5t-79.5 -16.5h-40q-14 0 -28 1.5t-28 4.5q-1 0 -3 0.5t-3 0.5q-2 0 -3.5 0.5t-3.5 0.5v1zM212 75q7 -11 16 -18.5
t19 -12.5q11 -5 21.5 -8.5t21.5 -5.5h0.5h1.5q1 -1 1.5 -1h0.5q27 3 47.5 15t34.5 34q17 26 26 53.5t10 58.5v4v3q0 32 -9 62t-27 56q-15 22 -37 34.5t-51 16.5q-1 0 -2 -0.5t-2 -0.5q-2 0 -3 -0.5t-2 -0.5q-9 -1 -18 -4t-17 -6q-9 -4 -16.5 -8t-15.5 -9v-262v0v0z" />
    <glyph glyph-name="r" unicode="q" horiz-adv-x="528" 
d="M378 394l33 33h40l16 -9q-1 -14 -2.5 -27t-2.5 -25q-1 -13 -1.5 -25t-0.5 -24q-1 -13 -1.5 -25.5t-0.5 -24.5v-25.5v-24.5v-278v-4v-4q-1 -1 -1 -3v-4v-8v-8v-7.5v-7.5v-8v-8q0 -20 2.5 -33.5t6.5 -20.5q5 -8 16.5 -11.5t30.5 -3.5h8v-33h-40h-3h-3q-2 1 -3.5 1h-3.5
h-2.5h-3.5q-1 1 -2.5 1h-3.5q-4 0 -9 0.5t-9 0.5q-5 1 -9.5 1h-9.5q-5 1 -10.5 1h-10.5h-6.5h-7.5t-7.5 -0.5t-6.5 -0.5l-25.5 -2l-25.5 -2h-40v33q22 0 36 3.5t20 9.5q6 7 9 21t3 35v8v8v7.5v7.5v4v4q-1 2 -1 4v4v7.5v7.5v93q-6 -5 -12 -9.5t-13 -8.5q-18 -11 -38 -16
t-42 -5h-40q-35 0 -62.5 12.5t-47.5 38.5t-32.5 55t-17.5 61l-2 10.5t-1 10.5q-1 5 -1 10.5v11.5q0 44 14.5 82.5t43.5 71.5t66 49.5t83 16.5l40 1q17 -1 32.5 -4.5t30.5 -9.5l16 -8t15 -9v1zM346 104v145q0 25 -4.5 49t-13.5 46q-7 18 -23 29t-41 14q-27 -3 -47 -15.5
t-34 -33.5q-16 -25 -24.5 -53t-8.5 -59v-6v-5q0 -3 0.5 -6t0.5 -6q0 -6 1 -11.5l2 -10.5q5 -25 15 -48t26 -44q12 -17 28.5 -27t37.5 -13h0.5h0.5h0.5h0.5q12 2 24 6.5t23 11.5t20 16t16 19v2v0z" />
    <glyph glyph-name="s" unicode="r" horiz-adv-x="388" 
d="M52 356v24q15 4 29.5 9.5t28.5 12.5q7 3 14 6.5t14 6.5q6 4 13 8l14 8l40 1l13 -3v-41q2 1 4 2.5t4 3.5l3 3t4 3q13 11 28.5 17t33.5 6l40 1l6 -1q2 -1 4 -1h4l4 -2t5 -2l4 -2t4 -3q4 -3 6 -6.5t2 -8.5v-2.5v-3.5q-1 -1 -1 -2.5v-3.5v-3t-1 -3q0 -2 -0.5 -3.5t-0.5 -3.5
q-1 -6 -3 -11.5t-5 -10.5t-7 -7.5t-9 -2.5l-40 1q-3 -1 -5.5 -1t-4.5 1q-3 0 -5.5 0.5t-4.5 1.5l-5 2l-5 2q-1 -1 -2 -0.5t-2 0.5q-2 0 -3 0.5t-2 0.5q-5 -2 -9.5 -4.5t-8.5 -6.5q-8 -7 -14 -15t-9 -17q-2 -5 -3.5 -11t-2.5 -13q0 -4 -0.5 -7.5t-0.5 -6.5q-1 -4 -1 -7.5
v-7.5q-1 -7 -1 -13.5v-12.5v-11.5v-10.5v-13.5v-12.5v-13.5v-12.5q-1 -7 -1 -14v-13v-13.5v-12.5q0 -18 2 -31t6 -21q4 -9 16 -13t32 -4l-40 1l10 1h40v-33h-40h-13.5h-12.5q-7 0 -13.5 0.5t-13.5 0.5q-4 0 -8 0.5t-8 0.5t-8 0.5t-8 0.5t-7.5 -0.5t-7.5 -0.5t-7.5 -0.5
t-7.5 -0.5q-6 0 -12 -0.5t-12 -0.5h-13h-12h-40v33q22 -2 36 1t20 10t9 21t3 35v7.5v7.5v8v8v4v4q-1 1 -1 3v4v8v8v14v14v14t1 14v14v14v14v14q0 20 -2 34t-5 24q-4 9 -16 15t-32 7v2v0z" />
    <glyph glyph-name="t" unicode="s" horiz-adv-x="376" 
d="M315 406l9 -85l-25 -4h-40h-1v2q-4 13 -11 25t-16 23q-6 8 -13.5 12.5t-15.5 7.5q-7 -2 -13 -5t-11 -8q-9 -7 -13.5 -17.5t-4.5 -23.5q0 -15 5.5 -27.5t15.5 -22.5q11 -10 23 -19.5t27 -18.5q2 -1 4 -2.5t4 -3.5q1 -1 2 -1.5t3 -0.5q1 -1 2 -1.5t2 -1.5q17 -10 32 -22
t28 -26q14 -13 21 -30.5t7 -40.5q0 -28 -10.5 -50.5t-30.5 -39.5q-20 -16 -44 -24t-51 -8h-40h-4h-4q-2 1 -4 1h-4h-4h-3q-2 1 -4 1h-4q-10 1 -20 2.5t-19 2.5q-10 2 -19 5t-18 7l-13 104l27 5h40q4 -20 10.5 -36.5t15.5 -31.5q7 -11 17.5 -18t23.5 -10q9 2 17.5 6t15.5 10
q11 9 16.5 21t5.5 28q0 12 -4.5 22.5t-13.5 19.5q-4 5 -9 9t-10 9q-6 4 -11.5 8.5t-11.5 8.5q-4 2 -7.5 4t-6.5 4q-1 1 -3 2t-3 3q-2 1 -3.5 2t-3.5 2q-16 11 -31 23.5t-29 25.5q-13 14 -20 32.5t-7 40.5q0 28 9 49.5t28 36.5t41.5 23t49.5 8l40 1q2 -1 3.5 -1h2.5
q2 -1 3.5 -1h2.5h3h3h2.5h2.5q5 -1 9 -1.5t9 -1.5q4 -1 8.5 -2t8.5 -2q5 -1 9 -2.5t8 -2.5q5 -2 9 -3t8 -3l-40 1v1h40v0z" />
    <glyph glyph-name="u" unicode="t" horiz-adv-x="343" 
d="M180 522h27l-2 -127h128l-14 -40h-118v-121v-13t1 -12v-12v-12v-23.5v-22.5v-2.5v-2.5v-3v-3v-2.5v-2.5q0 -2 0.5 -3t0.5 -3q1 -16 4.5 -30t10.5 -28q5 -10 13 -16t20 -8h1.5t1.5 1h1.5h1.5q6 2 12.5 3.5t13.5 4.5l40 1l10 -25q-10 -6 -21.5 -10.5t-22.5 -7.5
q-11 -2 -22.5 -4.5t-22.5 -3.5h-2.5t-2.5 -1h-3h-2h-40h-4.5h-4.5q-25 0 -43 5.5t-30 17.5t-17.5 30.5t-5.5 42.5v6.5v7.5v7t1 8v6.5v7.5v6.5v7.5v209h-55l7 28q17 11 32.5 25.5t28.5 32.5q14 18 23 37.5t14 41.5v2h40v0z" />
    <glyph glyph-name="v" unicode="u" horiz-adv-x="562" 
d="M524 39v-29q-16 -3 -32 -5.5t-32 -4.5q-16 -1 -31.5 -5l-30.5 -8h-40l-12 13q1 2 1.5 5.5t0.5 6.5q1 3 1.5 6.5t0.5 6.5q-6 -4 -12 -7.5l-13 -7.5q-19 -10 -40 -15.5t-43 -5.5h-40q-30 0 -51 9.5t-33 29.5t-18.5 42.5t-8.5 47.5q0 2 -0.5 3.5t-0.5 3.5v3v3v3.5v3.5v3v3
v4.5v5.5v4.5v4.5v10t1 10v9.5v8.5v10v10v12v12v12t1 12v12v12v12v12q0 19 -3.5 31.5t-9.5 19.5q-6 6 -18 9.5t-30 3.5v34h40l5 -2q4 -1 7.5 -1t6.5 1h7.5h6.5q15 0 30.5 2t31.5 5l40 1q-1 -29 -2.5 -57.5t-1.5 -57.5q-1 -28 -1 -56.5v-57.5v-4v-5v-5t1 -4v-4v-4v-8t1 -8
q1 -19 5.5 -36.5t11.5 -33.5q6 -13 17 -20.5t27 -10.5q10 2 19.5 5t18.5 7q14 6 26.5 14t25.5 18v160v6v8v4v5q0 2 0.5 4t0.5 4v8v8v4v5v4v4q0 18 -3 30.5t-9 19.5t-18 10.5t-31 3.5v34h40l4 -2h4q1 -1 2 -1h2h1h2h4h4h0.5h0.5q0 -1 0.5 -1h0.5q3 0 5.5 0.5t5.5 0.5t5.5 0.5
t5.5 0.5q6 1 12 1.5t13 1.5l12 2l12 2l40 1l-2 -19q-1 -17 -1.5 -33t-0.5 -32v-16v-15q-1 -8 -1 -15.5v-15.5v-31.5v-31.5v-31.5v-30.5v-4v-4v-2v-1v-2v-2v-25.5t1 -23.5t2.5 -18.5t2.5 -10.5q2 -5 6 -8.5t8 -5.5q5 -1 10 -2.5t10 -2.5h2h2q1 -1 2 -1h2l-40 1q2 -1 4 -1h4
l1 1h2v1h40v0z" />
    <glyph glyph-name="w" unicode="v" horiz-adv-x="478" 
d="M-3 385v34h40q6 -2 12 -3t12 -1q6 -1 12 -1.5t12 -0.5q5 -1 9.5 -1h8.5h21.5t20.5 1q7 0 13.5 0.5t13.5 0.5q6 1 12.5 1.5t13.5 1.5l40 1v-33h-14l-2 -1h-1q-7 -2 -13.5 -3.5t-12.5 -4.5t-9 -7.5t-3 -11.5v-4v-4v-2t1 -1q0 -1 0.5 -2t0.5 -2v-3t1 -3q0 -2 0.5 -3.5
t1.5 -3.5q2 -3 3.5 -6t2.5 -6t2 -5.5t2 -4.5t1.5 -4.5t1.5 -4.5l55 -136l38 90q2 2 3.5 6t3.5 8q2 5 4 9.5t4 9.5l2 4l2 4t1.5 4.5t1.5 5.5q2 3 3 6t2 7l2 6l2 6q2 6 3 12t1 12q0 8 -3 13.5t-8 8.5q-6 3 -12 5t-12 3h-2.5t-2.5 1h-2h-2h-4h-4v36h40q11 -3 22 -4.5t22 -1.5
q7 -1 13.5 -1h12.5h4.5t4.5 1h4.5h4.5q5 0 10 0.5t10 1.5q5 0 10 0.5t10 1.5l40 1v-33q-7 -2 -14 -3.5t-14 -3.5q-7 -1 -12.5 -5t-10.5 -9q-6 -7 -12 -15t-11 -17t-9.5 -18.5l-9.5 -19.5l-6 -13.5t-5 -12.5l-5.5 -13l-4.5 -11l-60 -140q-6 -16 -12 -30l-12 -28t-11 -28
l-10 -27h-40h-19q-1 2 -1.5 3.5t-0.5 3.5q-1 1 -1.5 2.5t-1.5 2.5q-1 2 -1.5 3.5t-0.5 2.5q-1 2 -1.5 3.5t-1.5 2.5l-1 6l-2 4q-1 4 -3 8t-3 9q-2 4 -3.5 8.5t-3.5 8.5q-1 5 -3 9t-4 9q-1 4 -3 8.5t-4 8.5l-65 162q-2 3 -4.5 8.5l-5.5 12.5q-1 4 -3 7.5t-3 7.5
q-2 4 -3.5 7.5t-3.5 7.5l-4 8l-4 8t-3.5 7.5t-3.5 7.5q-3 5 -6 9t-5 8q-3 4 -5.5 7t-4.5 6q-4 3 -8.5 5.5t-9.5 3.5q-2 1 -4.5 1.5t-4.5 1.5q-2 0 -4.5 0.5t-4.5 1.5l-5 1l-4 1l-1 1v0z" />
    <glyph glyph-name="x" unicode="w" horiz-adv-x="656" 
d="M-3 385v33h40q10 -2 20 -3.5t20 -2.5q3 0 5.5 -0.5t5.5 -0.5h5.5h5.5h12t13 1q6 0 12 0.5t12 1.5q5 0 11 0.5t12 1.5l40 1v-32q-1 -1 -2 -1.5l-1 -0.5q-1 -1 -2 -1h-2h-2h-2q-1 -1 -2 -1h-2q-5 -1 -9.5 -3t-9.5 -4q-4 -3 -6.5 -7t-2.5 -9v-4v-4v-2t1 -1q0 -1 0.5 -2
t1.5 -2q0 -3 1 -5.5t2 -4.5q1 -3 2 -5l2 -4l2 -5l3 -5l53 -143l56 132q-1 1 -2 3.5t-2 5.5l-1.5 3t-0.5 3q-1 1 -1.5 2.5t-0.5 2.5q-5 12 -11 22.5t-13 19.5q-7 8 -18 12.5t-28 5.5v35h40q6 -2 12 -3t12 -1q3 0 6 -0.5t7 -0.5q3 -1 6 -1h6h6h6q3 -1 6 -1h6h3h3h2.5h2.5h6
t7 1h6.5h6.5q6 0 12 0.5t13 1.5q6 0 12.5 0.5t13.5 1.5l40 1v-32q-1 -2 -2.5 -2.5t-2.5 -0.5q-2 -1 -3 -1h-3h-2.5h-2.5q-2 -1 -3 -1h-3l-2 1h-2q-7 -1 -13 -2t-12 -3t-9 -7t-3 -13q0 -4 0.5 -8.5t1.5 -8.5q2 -4 3.5 -8t3.5 -8l59 -149l37 104q1 1 2 3t2 5q1 2 2 5l2 6
q2 7 4.5 14.5t5.5 14.5q2 8 3.5 15.5t1.5 14.5q0 8 -2 13t-6 6q-4 2 -8.5 3t-9.5 2h-5.5h-4.5t-4 1l-4 2v35h40q10 -2 20 -3l20 -2q3 0 5.5 -0.5t4.5 -0.5h4.5h5.5h3.5t2.5 1h3.5h3.5h4t4 1h4h4q5 0 9.5 0.5t8.5 1.5l40 1v-32q-13 -2 -23.5 -8t-18.5 -16q-7 -10 -13 -21
t-11 -22q-1 -4 -2.5 -8t-3.5 -8q-1 -4 -2.5 -7.5t-3.5 -6.5l-69 -174l-11.5 -31l-10.5 -30l-10 -29.5t-10 -27.5h-40h-19l-4.5 11t-4.5 13q-3 6 -5.5 12.5t-4.5 13.5q-3 7 -5.5 13.5t-4.5 13.5q-3 6 -5.5 12.5t-5.5 13.5l-45 110l-46 -108q-2 -7 -4.5 -12.5t-4.5 -10.5
l-4 -10.5l-4 -10.5q-4 -8 -7.5 -16t-6.5 -16l-6 -14.5l-6 -14.5h-40h-18q-3 7 -6 15.5l-6 17.5q-1 5 -2.5 9l-3.5 9q-1 4 -2.5 8.5t-3.5 8.5l-3 7q-1 1 -1.5 3t-0.5 4q-3 7 -5.5 14t-4.5 14q-3 7 -5.5 14t-4.5 14l-51 137q-1 1 -2 3t-2 5l-2 6l-2 6l-1 2v2l-12 28t-14 27
q-7 14 -20 22t-29 11l-2 2v0z" />
    <glyph glyph-name="y" unicode="x" horiz-adv-x="489" 
d="M20 386v32h40q11 -2 22.5 -3.5t23.5 -2.5q3 0 6 -0.5t7 -0.5h6h6h13.5t13.5 1q6 0 12 0.5t12 1.5q5 0 11 0.5t12 1.5l40 1v-31h-9l-2 -1v0l-4 -1h-4q-3 -2 -6 -2.5t-5 -2.5q-3 -1 -4 -3t-1 -5q0 -5 1.5 -11t5.5 -14q2 -4 4 -7.5t4 -6.5q3 -4 5 -7.5t5 -7.5q1 -1 1.5 -2
t1.5 -2q0 -1 0.5 -2t1.5 -2l6 -6q2 -3 3 -5t3 -4q1 -2 2.5 -4t2.5 -4v0v0q3 5 6 9.5t6 8.5q2 5 5 9.5t6 8.5q6 9 10 18.5t5 19.5q0 7 -2 11.5t-7 6.5q-4 2 -9.5 3.5t-11.5 1.5l-4 2h-4v33h40q5 -2 10.5 -3t10.5 -1q5 -1 10.5 -1.5t11.5 -0.5h4.5h4.5q2 -1 4.5 -1h4.5h12
t11 1l18.5 2l19.5 2l40 1v-31q-20 -2 -37.5 -9.5t-32.5 -22.5t-28.5 -31t-25.5 -33l-10 -15.5l-10 -15.5q-4 -7 -8.5 -14t-9.5 -13l80 -117q2 -5 4 -8.5t5 -7.5q2 -4 4.5 -8t5.5 -7q4 -6 8.5 -12t8.5 -12q5 -6 9.5 -10.5t8.5 -7.5q3 -3 7 -5t8 -3l8 -2t8 -1v1h1q1 -1 2 -1h2
q1 -1 2 -1h2q2 -1 4 -1.5t4 -0.5v-28h-40h-22t-22 1q-2 0 -4 0.5t-4 0.5h-7.5h-8.5h-8h-9q-10 -1 -19.5 -1.5t-18.5 -0.5h-3h-3h-3.5h-3.5h-40h-6h-6v30h40h8l4 -1h-40h5q5 -1 8.5 0.5t7.5 2.5q4 2 6 5.5t2 8.5l-1 5v4l-2.5 5t-3.5 6l-1.5 3l-1.5 3q-1 1 -1.5 2.5t-1.5 2.5
l-4 5l-3 5l-40 59q-2 -4 -4 -6.5t-4 -5.5q-3 -3 -5 -6l-4 -6q-1 -1 -1.5 -2t-0.5 -2q-1 -1 -1.5 -2t-1.5 -2l-5 -5q-6 -11 -11.5 -20l-10.5 -17q-4 -9 -6.5 -15.5t-2.5 -11.5v1q0 -5 1.5 -8t4.5 -5q3 -1 7 -2.5t8 -1.5h4h-40h5h2h2l6 1h40v-30h-40h-20.5t-21.5 1h-4t-4 1h-5
h-4h-2.5h-2.5h-10h-10q-5 -1 -10 -1.5t-10 -0.5h-10h-10h-40v30q15 0 27 3t22 8q9 5 18 12.5t17 16.5q2 3 4.5 6t5.5 7q2 3 5 6.5t6 7.5l78 107l-85 124q-4 4 -7 7.5t-5 7.5l-5.5 7.5l-4.5 6.5q-6 7 -12.5 12t-13.5 8t-16.5 4.5t-23.5 2.5v2v0z" />
    <glyph glyph-name="z" unicode="y" horiz-adv-x="472" 
d="M-3 386v32h40q3 -2 6 -2.5t6 -0.5q2 -1 5 -1h6t6 -0.5t6 -0.5q2 -1 5 -1h6h4.5h5.5q2 -1 4.5 -1h5.5h18t17 1l24.5 2l25.5 2l40 1v-31q-2 -2 -4.5 -2h-5.5h-2.5h-2.5q-2 -1 -3 -1h-2q-6 -1 -11 -3l-10 -4q-4 -3 -6.5 -7t-2.5 -10v-4v-4v-2t1 -1q0 -1 0.5 -2t0.5 -2
q0 -4 1.5 -8t2.5 -8q2 -4 3.5 -8t2.5 -7v-2t1 -1q0 -1 0.5 -2t0.5 -2l3 -5l58 -151l34 90q2 2 3.5 5t2.5 7q2 4 3.5 8t2.5 8q5 10 8.5 20.5l7.5 21.5t6 22t2 22q0 8 -3 14t-9 9t-12.5 4.5t-13.5 2.5h-2h-1h-2h-2l-6 1v33h40l3 -1.5t3 -0.5q1 -1 2.5 -1h2.5h3h3q1 -1 2.5 -1
h2.5h3h3q1 -1 2.5 -1h2.5h6h6q5 -1 9.5 -1.5t9.5 -0.5h13.5t13.5 1l21.5 2l21.5 2l40 1v-31q-25 -5 -42.5 -13.5t-26.5 -22.5q-10 -14 -18 -30.5t-14 -35.5l-2 -6t-2 -5l-2 -6l-2 -6l-2 -6t-2 -5q-2 -3 -3 -6l-2 -6l-90 -223l-8.5 -20.5t-9.5 -23.5q-5 -14 -11 -27.5
l-12 -27.5q-10 -23 -23 -44.5t-28 -40.5q-15 -20 -32 -29.5t-37 -9.5h-40q-8 0 -15.5 3t-13.5 9q-7 6 -10 13t-3 15q0 10 3.5 17t10.5 12q7 4 14.5 7t15.5 5l5 2h6q18 3 32 10.5t24 21.5q10 13 18.5 28t15.5 31q2 4 3.5 8t2.5 8l2 4l2 4q0 2 1 4l2 4l1 3l2 3l-93 242l-18 42
q-3 5 -5 11l-4 12l-4 11.5l-4 10.5q-4 11 -10 20t-13 15t-18.5 10t-27.5 6l-2 2v0z" />
    <glyph glyph-name="braceleft" unicode="z" horiz-adv-x="455" 
d="M102 433h19q5 -4 10 -6.5l9 -4.5t8 -3.5t8 -2.5q5 -1 10 -2.5t11 -1.5q3 -1 6 -1h6l192 2h40l5 -11l-265 -365q10 -2 20 -3t20 -1v0v0q29 0 52 1.5t40 5.5t32.5 16t30.5 33l4 6l4 6t4 7l4 8l40 1l26 -6l-35 -111h-40h-12.5h-12.5h-13h-12h-12h-12h-13h-12l-32 2
q-9 -2 -18 -2h-18h-22h-22h-11.5h-10.5h-11.5h-11.5h-40h-22h-22l-7 11q5 4 9.5 10t8.5 12q2 3 4.5 6t5.5 7l4.5 6.5l4.5 6.5t4.5 6t4.5 7q2 3 4.5 6t4.5 6t4.5 6t5.5 7q2 3 4.5 6t4.5 6l193 271h-64q-22 -2 -39.5 -5t-30.5 -9t-23 -20.5t-17 -37.5l-40 1l-29 5l22 119h40v0
v0z" />
    <glyph glyph-name="bar" unicode="{" horiz-adv-x="541" 
d="M104 311v15q20 -1 37.5 3t32.5 11q14 8 21.5 23.5t7.5 39.5v10v10v4.5v5.5q-1 2 -1 4.5v5.5v4.5v5.5v4.5v5.5v7.5v7.5q-1 4 -1 7.5v7.5v15.5v14.5q0 46 4.5 82t14.5 61q10 26 40.5 39.5t82.5 14.5h6.5h7.5h7.5t7.5 1l40 1q3 -1 6.5 -1h7.5h7.5h7.5v-20q-31 -2 -55 -7.5
t-42 -14.5q-18 -10 -27.5 -32.5t-10.5 -57.5v-171q-1 -20 -5.5 -36.5t-13.5 -29.5t-23 -21t-34 -13v-1q21 -5 35.5 -15t22.5 -27q8 -16 13 -33.5t6 -35.5v-2v-1v-2v-2v-4v-4v-10v-9q-1 -5 -1 -9.5v-9.5v-19v-18v-10v-9q-1 -5 -1 -9.5v-9.5v-19.5v-18.5q0 -38 7.5 -64
t22.5 -39q15 -14 42 -21t64 -7v-22h-40h-15q-40 1 -74 6t-60 14t-39 38.5t-13 78.5v33.5v32.5q0 17 0.5 33.5t1.5 32.5v16.5v16.5v8t1 9v8v8q0 26 -6.5 43.5t-19.5 25.5t-31.5 12.5t-41.5 5.5v2v0z" />
    <glyph glyph-name="braceright" unicode="|" horiz-adv-x="541" 
d="M263 667h54v-323v-511h-40h-54v322v512h40v0v0z" />
    <glyph glyph-name="asciitilde" unicode="}" horiz-adv-x="541" 
d="M436 325v-14q-22 -2 -39.5 -6.5t-31.5 -12.5q-14 -7 -21 -23.5t-7 -41.5v-25.5v-25.5t0.5 -25.5t1.5 -24.5v-26v-25v-12.5t1 -12.5v-13.5v-12.5q0 -37 -8.5 -63t-25.5 -41q-16 -15 -43 -23t-64 -9h-7.5h-7.5h-7.5t-7.5 -1h-40h-7.5h-7.5h-7.5h-7.5v22q32 0 56 5t42 16
q17 10 26 32.5t10 55.5v22.5v22.5v22.5t1 23.5v22.5v22.5v22.5v23.5q0 21 4 39.5t11 34.5q8 16 23 26.5t38 14.5v5q-19 3 -33.5 11t-23.5 21t-14 29t-5 35v124q0 43 -5.5 73.5t-16.5 48.5q-10 17 -38.5 26.5t-74.5 10.5v24h40l4 -1h5l4 -1h5q47 -1 81 -6t56 -16
q23 -10 34 -45t11 -94v-10v-9q-1 -5 -1 -10v-10v-19.5v-18.5v-10v-10q-1 -5 -1 -10v-10v-19.5v-18.5q0 -25 7 -40.5t21 -23.5q14 -7 31.5 -11.5t39.5 -5.5v1z" />
    <glyph glyph-name="bullet" unicode="~" horiz-adv-x="541" 
d="M497 400l16 -8q-11 -20 -26 -37t-34 -32t-40 -22t-44 -7l-40 1q-13 -1 -25 0.5t-24 4.5t-23.5 7l-22.5 8l-12 4t-11 3l-12 4t-12 3q-3 1 -6.5 1.5t-6.5 1.5t-6.5 1.5t-6.5 0.5q-8 -1 -15 -4t-13 -8q-10 -7 -19 -14.5t-17 -15.5l-5 -4l-4 -4l-3 -3l-2 -2h-40l-16 10v0l2 2
q12 16 27 32t33 31t38.5 22.5t43.5 7.5l40 1q12 -1 23.5 -2.5t22.5 -4.5t22.5 -6.5t22.5 -7.5t22 -7.5t22 -6.5q3 -1 6 -1.5t7 -1.5q3 -1 6 -1.5t6 -0.5q11 2 20.5 5.5t19.5 8.5q14 8 25 17.5t21 21.5v2h40v0z" />
    <glyph glyph-name="Adieresis" unicode="&#xc4;" 
 />
    <glyph glyph-name="Aring" unicode="&#xc5;" 
 />
    <glyph glyph-name="Ccedilla" unicode="&#xc7;" 
 />
    <glyph glyph-name="Eacute" unicode="&#xc9;" 
 />
    <glyph glyph-name="Ntilde" unicode="&#xd1;" 
 />
    <glyph glyph-name="Odieresis" unicode="&#xd6;" 
 />
    <glyph glyph-name="Udieresis" unicode="&#xdc;" 
 />
    <glyph glyph-name="aacute" unicode="&#xe1;" 
 />
    <glyph glyph-name="agrave" unicode="&#xe0;" 
 />
    <glyph glyph-name="acircumflex" unicode="&#xe2;" 
 />
    <glyph glyph-name="adieresis" unicode="&#xe4;" 
 />
    <glyph glyph-name="atilde" unicode="&#xe3;" 
 />
    <glyph glyph-name="aring" unicode="&#xe5;" 
 />
    <glyph glyph-name="ccedilla" unicode="&#xe7;" 
 />
    <glyph glyph-name="eacute" unicode="&#xe9;" 
 />
    <glyph glyph-name="egrave" unicode="&#xe8;" 
 />
    <glyph glyph-name="ecircumflex" unicode="&#xea;" 
 />
    <glyph glyph-name="edieresis" unicode="&#xeb;" 
 />
    <glyph glyph-name="iacute" unicode="&#xed;" 
 />
    <glyph glyph-name="igrave" unicode="&#xec;" 
 />
    <glyph glyph-name="icircumflex" unicode="&#xee;" 
 />
    <glyph glyph-name="idieresis" unicode="&#xef;" 
 />
    <glyph glyph-name="ntilde" unicode="&#xf1;" 
 />
    <glyph glyph-name="oacute" unicode="&#xf3;" 
 />
    <glyph glyph-name="ograve" unicode="&#xf2;" 
 />
    <glyph glyph-name="ocircumflex" unicode="&#xf4;" 
 />
    <glyph glyph-name="odieresis" unicode="&#xf6;" 
 />
    <glyph glyph-name="otilde" unicode="&#xf5;" 
 />
    <glyph glyph-name="uacute" unicode="&#xfa;" 
 />
    <glyph glyph-name="ugrave" unicode="&#xf9;" 
 />
    <glyph glyph-name="ucircumflex" unicode="&#xfb;" 
 />
    <glyph glyph-name="udieresis" unicode="&#xfc;" 
 />
    <glyph glyph-name="dagger" unicode="&#x2020;" 
 />
    <glyph glyph-name="glyph131" 
 />
    <glyph glyph-name="cent" unicode="&#xa2;" 
 />
    <glyph glyph-name="sterling" unicode="&#xa3;" 
 />
    <glyph glyph-name="section" unicode="&#xa7;" 
 />
    <glyph glyph-name="glyph135" horiz-adv-x="710" 
 />
    <glyph glyph-name="paragraph" unicode="&#xb6;" 
 />
    <glyph glyph-name="germandbls" unicode="&#xdf;" 
 />
    <glyph glyph-name="registered" unicode="&#xae;" 
 />
    <glyph glyph-name="copyright" unicode="&#xa9;" 
 />
    <glyph glyph-name="trademark" unicode="&#x2122;" 
 />
    <glyph glyph-name="acute" unicode="&#xb4;" 
 />
    <glyph glyph-name="dieresis" unicode="&#xa8;" 
 />
    <glyph glyph-name="notequal" unicode="&#x2260;" 
 />
    <glyph glyph-name="AE" unicode="&#xc6;" 
 />
    <glyph glyph-name="Oslash" unicode="&#xd8;" 
 />
    <glyph glyph-name="infinity" unicode="&#x221e;" 
 />
    <glyph glyph-name="plusminus" unicode="&#xb1;" 
 />
    <glyph glyph-name="lessequal" unicode="&#x2264;" 
 />
    <glyph glyph-name="greaterequal" unicode="&#x2265;" 
 />
    <glyph glyph-name="yen" unicode="&#xa5;" 
 />
    <glyph glyph-name="uni00B5" unicode="&#xb5;" 
 />
    <glyph glyph-name="partialdiff" unicode="&#x2202;" 
 />
    <glyph glyph-name="Sigma" unicode="&#x3a3;" 
 />
    <glyph glyph-name="product" unicode="&#x220f;" 
 />
    <glyph glyph-name="pi" unicode="&#x3c0;" 
 />
    <glyph glyph-name="integral" unicode="&#x222b;" 
 />
    <glyph glyph-name="ordfeminine" unicode="&#xaa;" 
 />
    <glyph glyph-name="ordmasculine" unicode="&#xba;" 
 />
    <glyph glyph-name="Omega" unicode="&#x3a9;" 
 />
    <glyph glyph-name="ae" unicode="&#xe6;" 
 />
    <glyph glyph-name="oslash" unicode="&#xf8;" 
 />
    <glyph glyph-name="questiondown" unicode="&#xbf;" 
 />
    <glyph glyph-name="exclamdown" unicode="&#xa1;" 
 />
    <glyph glyph-name="logicalnot" unicode="&#xac;" 
 />
    <glyph glyph-name="radical" unicode="&#x221a;" 
 />
    <glyph glyph-name="florin" unicode="&#x192;" 
 />
    <glyph glyph-name="approxequal" unicode="&#x2248;" 
 />
    <glyph glyph-name="uni2206" unicode="&#x2206;" 
 />
    <glyph glyph-name="guillemotleft" unicode="&#xab;" 
 />
    <glyph glyph-name="guillemotright" unicode="&#xbb;" 
 />
    <glyph glyph-name="ellipsis" unicode="&#x2026;" 
 />
    <glyph glyph-name="Agrave" unicode="&#xc0;" 
 />
    <glyph glyph-name="Atilde" unicode="&#xc3;" 
 />
    <glyph glyph-name="Otilde" unicode="&#xd5;" 
 />
    <glyph glyph-name="OE" unicode="&#x152;" 
 />
    <glyph glyph-name="oe" unicode="&#x153;" 
 />
    <glyph glyph-name="glyph177" 
 />
    <glyph glyph-name="emdash" unicode="&#x2014;" 
 />
    <glyph glyph-name="quotedblleft" unicode="&#x201c;" 
 />
    <glyph glyph-name="quotedblright" unicode="&#x201d;" 
 />
    <glyph glyph-name="quoteleft" unicode="&#x2018;" 
 />
    <glyph glyph-name="quoteright" unicode="&#x2019;" 
 />
    <glyph glyph-name="divide" unicode="&#xf7;" 
 />
    <glyph glyph-name="lozenge" unicode="&#x25ca;" 
 />
    <glyph glyph-name="ydieresis" unicode="&#xff;" 
 />
    <glyph glyph-name="Ydieresis" unicode="&#x178;" 
 />
    <glyph glyph-name="uni2215" unicode="&#x2215;" 
 />
    <glyph glyph-name="currency" unicode="&#xa4;" 
 />
    <glyph glyph-name="guilsinglleft" unicode="&#x2039;" 
 />
    <glyph glyph-name="guilsinglright" unicode="&#x203a;" 
 />
    <glyph glyph-name="uniF001" unicode="&#xf001;" 
 />
    <glyph glyph-name="uniF002" unicode="&#xf002;" 
 />
    <glyph glyph-name="daggerdbl" unicode="&#x2021;" 
 />
    <glyph glyph-name="uni2219" unicode="&#x2219;" 
 />
    <glyph glyph-name="quotesinglbase" unicode="&#x201a;" 
 />
    <glyph glyph-name="quotedblbase" unicode="&#x201e;" 
 />
    <glyph glyph-name="perthousand" unicode="&#x2030;" 
 />
    <glyph glyph-name="Acircumflex" unicode="&#xc2;" 
 />
    <glyph glyph-name="Ecircumflex" unicode="&#xca;" 
 />
    <glyph glyph-name="Aacute" unicode="&#xc1;" 
 />
    <glyph glyph-name="Edieresis" unicode="&#xcb;" 
 />
    <glyph glyph-name="Egrave" unicode="&#xc8;" 
 />
    <glyph glyph-name="Iacute" unicode="&#xcd;" 
 />
    <glyph glyph-name="Icircumflex" unicode="&#xce;" 
 />
    <glyph glyph-name="Idieresis" unicode="&#xcf;" 
 />
    <glyph glyph-name="Igrave" unicode="&#xcc;" 
 />
    <glyph glyph-name="Oacute" unicode="&#xd3;" 
 />
    <glyph glyph-name="Ocircumflex" unicode="&#xd4;" 
 />
    <glyph glyph-name="uniF000" unicode="&#xf000;" 
 />
    <glyph glyph-name="Ograve" unicode="&#xd2;" 
 />
    <glyph glyph-name="Uacute" unicode="&#xda;" 
 />
    <glyph glyph-name="Ucircumflex" unicode="&#xdb;" 
 />
    <glyph glyph-name="Ugrave" unicode="&#xd9;" 
 />
    <glyph glyph-name="dotlessi" unicode="&#x131;" 
 />
    <glyph glyph-name="tilde" unicode="&#x2dc;" 
 />
    <glyph glyph-name="circumflex" unicode="&#x2c6;" 
 />
    <glyph glyph-name="uni02C9" unicode="&#x2c9;" 
 />
    <glyph glyph-name="breve" unicode="&#x2d8;" 
 />
    <glyph glyph-name="dotaccent" unicode="&#x2d9;" 
 />
    <glyph glyph-name="ring" unicode="&#x2da;" 
 />
    <glyph glyph-name="cedilla" unicode="&#xb8;" 
 />
    <glyph glyph-name="uni02BA" unicode="&#x2ba;" 
 />
    <glyph glyph-name="ogonek" unicode="&#x2db;" 
 />
    <glyph glyph-name="caron" unicode="&#x2c7;" 
 />
    <glyph glyph-name="Lslash" unicode="&#x141;" 
 />
    <glyph glyph-name="lslash" unicode="&#x142;" 
 />
    <glyph glyph-name="Scaron" unicode="&#x160;" 
 />
    <glyph glyph-name="scaron" unicode="&#x161;" 
 />
    <glyph glyph-name="Zcaron" unicode="&#x17d;" 
 />
    <glyph glyph-name="zcaron" unicode="&#x17e;" 
 />
    <glyph glyph-name="brokenbar" unicode="&#xa6;" 
 />
    <glyph glyph-name="Eth" unicode="&#xd0;" 
 />
    <glyph glyph-name="eth" unicode="&#xf0;" 
 />
    <glyph glyph-name="Yacute" unicode="&#xdd;" 
 />
    <glyph glyph-name="yacute" unicode="&#xfd;" 
 />
    <glyph glyph-name="Thorn" unicode="&#xde;" 
 />
    <glyph glyph-name="thorn" unicode="&#xfe;" 
 />
    <glyph glyph-name="minus" unicode="&#x2212;" 
 />
    <glyph glyph-name="multiply" unicode="&#xd7;" 
 />
    <glyph glyph-name="uni00B9" unicode="&#xb9;" 
 />
    <glyph glyph-name="uni00B2" unicode="&#xb2;" 
 />
    <glyph glyph-name="uni00B3" unicode="&#xb3;" 
 />
    <glyph glyph-name="onehalf" unicode="&#xbd;" 
 />
    <glyph glyph-name="onequarter" unicode="&#xbc;" 
 />
    <glyph glyph-name="threequarters" unicode="&#xbe;" 
 />
    <glyph glyph-name="franc" unicode="&#x20a3;" 
 />
    <glyph glyph-name="Gbreve" unicode="&#x11e;" 
 />
    <glyph glyph-name="gbreve" unicode="&#x11f;" 
 />
    <glyph glyph-name="Idotaccent" unicode="&#x130;" 
 />
    <glyph glyph-name="Scedilla" unicode="&#x15e;" 
 />
    <glyph glyph-name="scedilla" unicode="&#x15f;" 
 />
    <glyph glyph-name="Cacute" unicode="&#x106;" 
 />
    <glyph glyph-name="cacute" unicode="&#x107;" 
 />
    <glyph glyph-name="Ccaron" unicode="&#x10c;" 
 />
    <glyph glyph-name="ccaron" unicode="&#x10d;" 
 />
    <glyph glyph-name="dcroat" unicode="&#x111;" 
 />
    <glyph glyph-name="arrowright" unicode="&#x2192;" 
 />
    <glyph glyph-name="house" unicode="&#x2302;" 
 />
    <glyph glyph-name="endash" unicode="&#x2013;" 
 />
    <glyph glyph-name="uni00AD" unicode="&#xad;" 
 />
    <glyph glyph-name="filledbox" unicode="&#x25a0;" 
 />
    <glyph glyph-name="glyph262" unicode="&#x2022;" 
 />
    <glyph glyph-name="macron" unicode="&#xaf;" 
 />
    <glyph glyph-name="degree" unicode="&#xb0;" 
 />
    <glyph glyph-name="periodcentered" unicode="&#xb7;" 
 />
    <glyph glyph-name="underscoredbl" unicode="&#x2017;" 
 />
    <glyph glyph-name="exclamdbl" unicode="&#x203c;" 
 />
    <glyph glyph-name="uni207F" unicode="&#x207f;" 
 />
    <glyph glyph-name="peseta" unicode="&#x20a7;" 
 />
    <glyph glyph-name="Gamma" unicode="&#x393;" 
 />
    <glyph glyph-name="Theta" unicode="&#x398;" 
 />
    <glyph glyph-name="Phi" unicode="&#x3a6;" 
 />
    <glyph glyph-name="alpha" unicode="&#x3b1;" 
 />
    <glyph glyph-name="delta" unicode="&#x3b4;" 
 />
    <glyph glyph-name="epsilon" unicode="&#x3b5;" 
 />
    <glyph glyph-name="sigma" unicode="&#x3c3;" 
 />
    <glyph glyph-name="tau" unicode="&#x3c4;" 
 />
    <glyph glyph-name="phi" unicode="&#x3c6;" 
 />
    <glyph glyph-name="arrowleft" unicode="&#x2190;" 
 />
    <glyph glyph-name="arrowup" unicode="&#x2191;" 
 />
    <glyph glyph-name="arrowdown" unicode="&#x2193;" 
 />
    <glyph glyph-name="arrowboth" unicode="&#x2194;" 
 />
    <glyph glyph-name="arrowupdn" unicode="&#x2195;" 
 />
    <glyph glyph-name="arrowupdnbse" unicode="&#x21a8;" 
 />
    <glyph glyph-name="orthogonal" unicode="&#x221f;" 
 />
    <glyph glyph-name="intersection" unicode="&#x2229;" 
 />
    <glyph glyph-name="equivalence" unicode="&#x2261;" 
 />
    <glyph glyph-name="revlogicalnot" unicode="&#x2310;" 
 />
    <glyph glyph-name="integraltp" unicode="&#x2320;" 
 />
    <glyph glyph-name="integralbt" unicode="&#x2321;" 
 />
    <glyph glyph-name="filledrect" unicode="&#x25ac;" 
 />
    <glyph glyph-name="circle" unicode="&#x25cb;" 
 />
    <glyph glyph-name="triagup" unicode="&#x25b2;" 
 />
    <glyph glyph-name="triagrt" unicode="&#x25ba;" 
 />
    <glyph glyph-name="triagdn" unicode="&#x25bc;" 
 />
    <glyph glyph-name="triaglf" unicode="&#x25c4;" 
 />
    <glyph glyph-name="invbullet" unicode="&#x25d8;" 
 />
    <glyph glyph-name="invcircle" unicode="&#x25d9;" 
 />
    <glyph glyph-name="Rcaron" unicode="&#x158;" 
 />
    <glyph glyph-name="upblock" unicode="&#x2580;" 
 />
    <glyph glyph-name="dnblock" unicode="&#x2584;" 
 />
    <glyph glyph-name="block" unicode="&#x2588;" 
 />
    <glyph glyph-name="lfblock" unicode="&#x258c;" 
 />
    <glyph glyph-name="rtblock" unicode="&#x2590;" 
 />
    <glyph glyph-name="ltshade" unicode="&#x2591;" 
 />
    <glyph glyph-name="shade" unicode="&#x2592;" 
 />
    <glyph glyph-name="dkshade" unicode="&#x2593;" 
 />
    <glyph glyph-name="smileface" unicode="&#x263a;" 
 />
    <glyph glyph-name="invsmileface" unicode="&#x263b;" 
 />
    <glyph glyph-name="sun" unicode="&#x263c;" 
 />
    <glyph glyph-name="female" unicode="&#x2640;" 
 />
    <glyph glyph-name="male" unicode="&#x2642;" 
 />
    <glyph glyph-name="spade" unicode="&#x2660;" 
 />
    <glyph glyph-name="club" unicode="&#x2663;" 
 />
    <glyph glyph-name="heart" unicode="&#x2665;" 
 />
    <glyph glyph-name="diamond" unicode="&#x2666;" 
 />
    <glyph glyph-name="musicalnote" unicode="&#x266a;" 
 />
    <glyph glyph-name="musicalnotedbl" unicode="&#x266b;" 
 />
    <glyph glyph-name="Abreve" unicode="&#x102;" 
 />
    <glyph glyph-name="abreve" unicode="&#x103;" 
 />
    <glyph glyph-name="Aogonek" unicode="&#x104;" 
 />
    <glyph glyph-name="aogonek" unicode="&#x105;" 
 />
    <glyph glyph-name="Dcaron" unicode="&#x10e;" 
 />
    <glyph glyph-name="dcaron" unicode="&#x10f;" 
 />
    <glyph glyph-name="Dcroat" unicode="&#x110;" 
 />
    <glyph glyph-name="Eogonek" unicode="&#x118;" 
 />
    <glyph glyph-name="eogonek" unicode="&#x119;" 
 />
    <glyph glyph-name="Ecaron" unicode="&#x11a;" 
 />
    <glyph glyph-name="ecaron" unicode="&#x11b;" 
 />
    <glyph glyph-name="Lacute" unicode="&#x139;" 
 />
    <glyph glyph-name="lacute" unicode="&#x13a;" 
 />
    <glyph glyph-name="Lcaron" unicode="&#x13d;" 
 />
    <glyph glyph-name="lcaron" unicode="&#x13e;" 
 />
    <glyph glyph-name="Nacute" unicode="&#x143;" 
 />
    <glyph glyph-name="nacute" unicode="&#x144;" 
 />
    <glyph glyph-name="Ncaron" unicode="&#x147;" 
 />
    <glyph glyph-name="ncaron" unicode="&#x148;" 
 />
    <glyph glyph-name="Ohungarumlaut" unicode="&#x150;" 
 />
    <glyph glyph-name="ohungarumlaut" unicode="&#x151;" 
 />
    <glyph glyph-name="Racute" unicode="&#x154;" 
 />
    <glyph glyph-name="racute" unicode="&#x155;" 
 />
    <glyph glyph-name="rcaron" unicode="&#x159;" 
 />
    <glyph glyph-name="Sacute" unicode="&#x15a;" 
 />
    <glyph glyph-name="sacute" unicode="&#x15b;" 
 />
    <glyph glyph-name="Tcommaaccent" unicode="&#x162;" 
 />
    <glyph glyph-name="tcommaaccent" unicode="&#x163;" 
 />
    <glyph glyph-name="Tcaron" unicode="&#x164;" 
 />
    <glyph glyph-name="tcaron" unicode="&#x165;" 
 />
    <glyph glyph-name="Uring" unicode="&#x16e;" 
 />
    <glyph glyph-name="uring" unicode="&#x16f;" 
 />
    <glyph glyph-name="uhungarumlaut" unicode="&#x171;" 
 />
    <glyph glyph-name="Uhungarumlaut" unicode="&#x170;" 
 />
    <glyph glyph-name="Zacute" unicode="&#x179;" 
 />
    <glyph glyph-name="zacute" unicode="&#x17a;" 
 />
    <glyph glyph-name="Zdotaccent" unicode="&#x17b;" 
 />
    <glyph glyph-name="zdotaccent" unicode="&#x17c;" 
 />
    <glyph glyph-name="Ldot" unicode="&#x13f;" 
 />
    <glyph glyph-name="ldot" unicode="&#x140;" 
 />
    <glyph glyph-name="SF100000" unicode="&#x2500;" 
 />
    <glyph glyph-name="SF110000" unicode="&#x2502;" 
 />
    <glyph glyph-name="SF010000" unicode="&#x250c;" 
 />
    <glyph glyph-name="SF030000" unicode="&#x2510;" 
 />
    <glyph glyph-name="SF020000" unicode="&#x2514;" 
 />
    <glyph glyph-name="SF040000" unicode="&#x2518;" 
 />
    <glyph glyph-name="SF080000" unicode="&#x251c;" 
 />
    <glyph glyph-name="SF090000" unicode="&#x2524;" 
 />
    <glyph glyph-name="SF060000" unicode="&#x252c;" 
 />
    <glyph glyph-name="SF070000" unicode="&#x2534;" 
 />
    <glyph glyph-name="SF050000" unicode="&#x253c;" 
 />
    <glyph glyph-name="SF430000" unicode="&#x2550;" 
 />
    <glyph glyph-name="SF240000" unicode="&#x2551;" 
 />
    <glyph glyph-name="SF510000" unicode="&#x2552;" 
 />
    <glyph glyph-name="SF520000" unicode="&#x2553;" 
 />
    <glyph glyph-name="SF390000" unicode="&#x2554;" 
 />
    <glyph glyph-name="SF220000" unicode="&#x2555;" 
 />
    <glyph glyph-name="SF210000" unicode="&#x2556;" 
 />
    <glyph glyph-name="SF250000" unicode="&#x2557;" 
 />
    <glyph glyph-name="SF500000" unicode="&#x2558;" 
 />
    <glyph glyph-name="SF490000" unicode="&#x2559;" 
 />
    <glyph glyph-name="SF380000" unicode="&#x255a;" 
 />
    <glyph glyph-name="SF280000" unicode="&#x255b;" 
 />
    <glyph glyph-name="SF270000" unicode="&#x255c;" 
 />
    <glyph glyph-name="SF260000" unicode="&#x255d;" 
 />
    <glyph glyph-name="SF360000" unicode="&#x255e;" 
 />
    <glyph glyph-name="SF370000" unicode="&#x255f;" 
 />
    <glyph glyph-name="SF420000" unicode="&#x2560;" 
 />
    <glyph glyph-name="SF190000" unicode="&#x2561;" 
 />
    <glyph glyph-name="SF200000" unicode="&#x2562;" 
 />
    <glyph glyph-name="SF230000" unicode="&#x2563;" 
 />
    <glyph glyph-name="SF470000" unicode="&#x2564;" 
 />
    <glyph glyph-name="SF480000" unicode="&#x2565;" 
 />
    <glyph glyph-name="SF410000" unicode="&#x2566;" 
 />
    <glyph glyph-name="SF450000" unicode="&#x2567;" 
 />
    <glyph glyph-name="SF460000" unicode="&#x2568;" 
 />
    <glyph glyph-name="SF400000" unicode="&#x2569;" 
 />
    <glyph glyph-name="SF540000" unicode="&#x256a;" 
 />
    <glyph glyph-name="SF530000" unicode="&#x256b;" 
 />
    <glyph glyph-name="SF440000" unicode="&#x256c;" 
 />
  </font>
</defs>
</svg>
