<?xml version="1.0" standalone="no"?>
<!DOCTYPE svg PUBLIC "-//W3C//DTD SVG 1.1//EN" "http://www.w3.org/Graphics/SVG/1.1/DTD/svg11.dtd" >
<svg>
<metadata>
Created by FontForge 20120731 at Mon Jun 12 07:49:01 2017
 By www
Copyright (c) 2007 by Marconi Lima / Typefolio Digital Foundry. All rights reserved.
</metadata>
<defs>
<font id="AdrianeTextW01-Bold" horiz-adv-x="479" >
  <font-face 
    font-family="AdrianeTextW01-Bold"
    font-weight="700"
    font-stretch="normal"
    units-per-em="1000"
    panose-1="2 0 8 5 8 0 0 2 0 4"
    ascent="750"
    descent="-250"
    x-height="500"
    cap-height="700"
    bbox="-140 -304 1164 973"
    underline-thickness="50"
    underline-position="-100"
    unicode-range="U+0002-E008"
  />
<missing-glyph horiz-adv-x="0" 
 />
    <glyph glyph-name=".notdef" horiz-adv-x="0" 
 />
    <glyph glyph-name=".null" horiz-adv-x="0" 
 />
    <glyph glyph-name="uni000D" unicode="&#xd;" horiz-adv-x="0" 
 />
    <glyph glyph-name="uni0002" horiz-adv-x="0" 
 />
    <glyph glyph-name="uni0009" unicode="&#x9;" horiz-adv-x="0" 
 />
    <glyph glyph-name="uni000A" unicode="&#xa;" horiz-adv-x="0" 
 />
    <glyph glyph-name="space" unicode=" " horiz-adv-x="320" 
 />
    <glyph glyph-name="exclam" unicode="!" horiz-adv-x="279" 
d="M224 70q0 -34 -24.5 -58t-57.5 -24q-34 0 -58 24t-24 58q0 35 24 58.5t58 23.5q33 0 57.5 -23.5t24.5 -58.5zM122 228l-53 535q0 31 21.5 52.5t52.5 21.5q30 0 52 -21.5t22 -52.5l-53 -529z" />
    <glyph glyph-name="quotedbl" unicode="&#x22;" horiz-adv-x="372" 
d="M88 460l-33 185q0 25 14.5 42.5t39.5 17.5q24 0 38.5 -17.5t14.5 -42.5l-33 -180zM243 460l-33 185q0 25 14.5 42.5t39.5 17.5q24 0 38.5 -17.5t14.5 -42.5l-33 -180z" />
    <glyph glyph-name="numbersign" unicode="#" horiz-adv-x="670" 
d="M413 160l-37 -160h-69l37 160h-84l-37 -160h-69l37 160h-136l17 74h136l28 124h-135l17 74h135l38 160h69l-38 -160h84l38 160h69l-38 -160h140l-17 -74h-140l-28 -124h139l-17 -74h-139zM389 358h-84l-28 -124h84z" />
    <glyph glyph-name="dollar" unicode="$" horiz-adv-x="518" 
d="M238 -144v129q-17 0 -39.5 2.5t-50 8t-58.5 15.5t-63 26l-11 153l10 9l48 3q0 -38 14 -68t37 -51.5t52.5 -33.5t60.5 -14v255q-36 18 -72 37.5t-65.5 46t-48 63.5t-18.5 89q0 44 18 78t47 58t65.5 37t73.5 15v123h50v-124q16 -2 33.5 -4t32.5 -3.5t26 -3t16 -1.5
q14 0 33.5 1.5t32.5 11.5l13 -9l-35 -159l-7 -5h-23q0 19 -8 39t-23.5 37.5t-38 29.5t-52.5 17v-241q37 -17 75 -36.5t69 -46.5t50.5 -63t19.5 -87q0 -43 -18 -78.5t-48 -61.5t-68.5 -42.5t-79.5 -20.5v-131h-50zM288 39q33 8 59.5 34.5t26.5 76.5q0 40 -24.5 66.5
t-61.5 47.5v-225zM238 664q-15 -2 -30 -8.5t-27 -18t-19.5 -29t-7.5 -41.5q0 -42 23.5 -69.5t60.5 -48.5v215z" />
    <glyph glyph-name="percent" unicode="%" horiz-adv-x="818" 
d="M168 -4l436 705l41 -30l-436 -706zM221 382q29 0 50.5 37t21.5 106q0 67 -21.5 104.5t-50.5 37.5t-50.5 -37.5t-21.5 -104.5q1 -69 22 -106t50 -37zM221 350q-40 0 -71 13.5t-52 37t-32 55.5t-11 69q0 36 11.5 68t32.5 56t52 37.5t70 13.5t70 -13.5t52 -37.5t32.5 -56
t11.5 -68q0 -37 -11.5 -69t-32.5 -55.5t-52 -37t-70 -13.5zM597 20q29 0 50.5 37t21.5 106q0 67 -21.5 104.5t-50.5 37.5t-50.5 -37.5t-21.5 -104.5q1 -69 22 -106t50 -37zM597 -12q-40 0 -71 13.5t-52 37t-32 55.5t-11 69q0 36 11.5 68t32.5 56t52 37.5t70 13.5t70 -13.5
t52 -37.5t32.5 -56t11.5 -68q0 -37 -11.5 -69t-32.5 -55.5t-52 -37t-70 -13.5z" />
    <glyph glyph-name="ampersand" unicode="&#x26;" horiz-adv-x="689" 
d="M671 41q-23 -22 -56.5 -37.5t-88.5 -15.5q-28 0 -48 4t-35 12t-27 19.5t-24 25.5l-12 14q-43 -34 -94.5 -54.5t-119.5 -20.5q-28 0 -54 9t-46.5 26.5t-32.5 44t-12 61.5q0 37 12.5 67.5t33.5 53t47.5 38t54.5 24.5l-10 12q-14 19 -27 37t-23 38.5t-16 43.5t-6 52
q0 46 16.5 85t46.5 66.5t72 43t93 15.5q28 0 53 -7t44 -20t30 -33t11 -45q0 -18 -7.5 -31t-19 -22t-25.5 -13t-28 -4l-7 6l-28 124l-7 5q-67 0 -98.5 -34.5t-31.5 -85.5q0 -28 3.5 -47.5t10.5 -36t18 -31t27 -32.5l189 -213q23 42 34.5 92.5t11.5 99.5l-84 20v36h258v-36
l-95 -20q-4 -21 -12.5 -47t-21 -54.5t-29.5 -59t-38 -58.5l56 -62q16 -18 37.5 -25.5t41.5 -7.5q14 0 31.5 4t31.5 9l8 -10zM190 287q-23 -21 -35 -52t-12 -65q0 -45 26.5 -71.5t75.5 -26.5q29 0 56.5 7t50.5 17z" />
    <glyph glyph-name="quotesingle" unicode="'" horiz-adv-x="217" 
d="M88 460l-33 185q0 25 14.5 42.5t39.5 17.5q24 0 38.5 -17.5t14.5 -42.5l-33 -180z" />
    <glyph glyph-name="parenleft" unicode="(" horiz-adv-x="325" 
d="M233 -236q-34 49 -66 103.5t-57 116.5t-40 131.5t-15 147.5q0 76 15 145t40 130.5t57 116.5t66 104l32 -15q-23 -46 -43 -96.5t-35 -109t-23.5 -127t-8.5 -149.5q0 -76 9 -144t24 -128.5t35 -113t42 -97.5z" />
    <glyph glyph-name="parenright" unicode=")" horiz-adv-x="325" 
d="M60 -221q22 45 42 97.5t35 113t23.5 128.5t8.5 144q0 81 -8.5 149.5t-23.5 127t-35 109t-42 96.5l32 15q34 -49 66 -104t57 -116.5t40 -130.5t15 -145q0 -78 -15 -147.5t-40 -131.5t-57 -116.5t-66 -103.5z" />
    <glyph glyph-name="asterisk" unicode="*" horiz-adv-x="410" 
d="M205 561l-11 2l-18 129q16 8 29 8q17 0 30 -10l-18 -127zM194 499l11 2l12 -2l18 -127q-13 -10 -30 -10q-13 0 -29 8zM171 539l-116 59q2 17 10 28q10 14 25 19l94 -87l-5 -11zM227 504l5 10l8 9l115 -58q0 -17 -9 -30q-8 -11 -23 -19zM241 537l-9 9l-4 10l95 89
q8 -3 13 -8t10 -11q9 -13 9 -30zM90 416q-16 5 -25 18q-4 6 -6 13t-4 15l116 60l8 -8l6 -10z" />
    <glyph glyph-name="plus" unicode="+" horiz-adv-x="637" 
d="M278 0v224h-223v79h223v224h81v-224h223v-79h-223v-224h-81z" />
    <glyph glyph-name="comma" unicode="," horiz-adv-x="306" 
d="M97 -201v4q45 37 67.5 88t17.5 105q-18 -8 -35 -8q-33 0 -57.5 23.5t-24.5 58.5q0 34 24.5 58t57.5 24q27 0 45.5 -13.5t29 -33.5t15 -44.5t4.5 -46.5q0 -67 -31.5 -130.5t-92.5 -108.5z" />
    <glyph glyph-name="hyphen" unicode="-" horiz-adv-x="428" 
d="M55 222v79h318v-79h-318z" />
    <glyph glyph-name="period" unicode="." horiz-adv-x="294" 
d="M147 -12q-33 0 -57.5 23.5t-24.5 58.5q0 34 24.5 58t57.5 24q34 0 58 -24t24 -58q0 -35 -24 -58.5t-58 -23.5z" />
    <glyph glyph-name="slash" unicode="/" horiz-adv-x="375" 
d="M20 -236l267 994h68l-267 -994h-68z" />
    <glyph glyph-name="zero" unicode="0" horiz-adv-x="592" 
d="M296 -15q-64 0 -113.5 26.5t-83.5 75t-51.5 115.5t-17.5 148t17.5 148.5t51.5 115.5t83.5 74.5t113.5 26.5t114 -26.5t83.5 -74.5t51 -115.5t17.5 -148.5t-17.5 -148t-51 -115.5t-83.5 -75t-114 -26.5zM296 33q34 0 59.5 22t41.5 63.5t24 100t8 132.5q0 73 -8 131.5
t-24 99.5t-41.5 63t-59.5 22q-35 0 -60 -22t-41.5 -63.5t-24 -100t-7.5 -131.5t7.5 -131.5t24 -100t41.5 -63.5t60 -22z" />
    <glyph glyph-name="one" unicode="1" horiz-adv-x="442" 
d="M35 0v42q37 0 60 4.5t36 13.5t18 22.5t5 30.5v436q0 17 -4.5 30.5t-17 22.5t-33.5 13.5t-54 4.5v42l221 38h16v-587q0 -17 4.5 -30.5t17.5 -22.5t36.5 -13.5t62.5 -4.5l4 -8l-4 -34h-368z" />
    <glyph glyph-name="two" unicode="2" horiz-adv-x="604" 
d="M35 0v51q33 21 67.5 42t68 43t64 46t56.5 53q42 47 65.5 109.5t23.5 137.5q0 91 -37.5 138t-94.5 47q-17 0 -34.5 -3.5t-35.5 -12.5l-7 -8l-21 -125l-8 -6q-13 0 -28 5t-28 14.5t-21.5 24.5t-8.5 36q0 33 19.5 56t49.5 38t67 22t73 7q66 0 113 -18.5t76.5 -50.5t43 -75
t13.5 -92q0 -69 -28.5 -121.5t-71.5 -95t-92.5 -79t-91.5 -73.5v-8h184q22 0 40 3t33.5 13.5t29 30.5t27.5 53h24l4 -9l-24 -193h-510z" />
    <glyph glyph-name="three" unicode="3" horiz-adv-x="551" 
d="M152 54q20 -10 38.5 -14.5t35.5 -4.5q45 0 76 12.5t50.5 34t28.5 49.5t9 60q0 67 -41.5 109t-138.5 42q-13 0 -27.5 -1.5t-27.5 -4.5l-3 45q62 8 101.5 22t62.5 33.5t31.5 44t8.5 53.5q0 27 -7 51.5t-21 42.5t-36.5 28.5t-53.5 10.5q-14 0 -30.5 -3.5t-34.5 -12.5l-7 -8
l-21 -125l-8 -6q-13 0 -28 5t-28 14.5t-21.5 24.5t-8.5 36q0 34 19 58t49 38t66 20.5t70 6.5q61 0 104.5 -12.5t71.5 -35.5t41.5 -55.5t13.5 -72.5q0 -21 -5.5 -45t-22 -45t-46 -36t-77.5 -18v-6q54 -6 90 -23.5t57.5 -41.5t30 -53t8.5 -58q0 -44 -18 -85.5t-54 -73
t-89.5 -50.5t-123.5 -19q-37 0 -73.5 6.5t-66 20.5t-48 37.5t-18.5 58.5q0 21 8.5 36t21.5 24.5t28 14.5t28 5l8 -6l21 -120z" />
    <glyph glyph-name="four" unicode="4" horiz-adv-x="612" 
d="M196 0v42q37 0 60 4.5t36 13.5t18 22.5t5 30.5v69h-290v44l327 474h92v-432h133l-14 -86h-119v-69q0 -17 4.5 -30.5t17.5 -22.5t36.5 -13.5t62.5 -4.5l4 -8l-4 -34h-369zM315 573l-210 -305h210v305z" />
    <glyph glyph-name="five" unicode="5" horiz-adv-x="545" 
d="M152 49q38 -19 79 -19q38 0 66.5 14.5t48 39.5t29.5 58t10 69q0 35 -12 68.5t-37 59.5t-64 42t-93 16q-35 0 -77 -6l10 309h231q45 0 80 14.5t52 48.5h19l4 -9l-21 -157h-309l-10 -156q26 4 52.5 6t53.5 2q65 0 112.5 -17.5t78 -47t45.5 -67.5t15 -79q0 -49 -18 -94.5
t-52.5 -81t-85.5 -56.5t-118 -21q-39 0 -77 6.5t-67.5 21t-48 38t-18.5 57.5q0 21 8.5 36t21.5 24.5t28 14.5t28 5l8 -6l21 -125z" />
    <glyph glyph-name="six" unicode="6" horiz-adv-x="539" 
d="M455 682q-70 -27 -120.5 -59.5t-84.5 -73t-53 -89.5t-27 -109q27 26 63 37.5t70 11.5q39 0 76 -14.5t66 -40.5t46.5 -62.5t17.5 -81.5q0 -43 -13.5 -82t-42.5 -69t-74 -47.5t-107 -17.5q-69 0 -115 25.5t-74.5 65t-40.5 88.5t-12 97q0 87 28.5 162t82 134.5t130 101.5
t173.5 63zM166 307q-2 -13 -3 -28t-1 -31q0 -38 6.5 -77t20 -71t34 -52.5t48.5 -20.5q51 0 78.5 42.5t27.5 119.5q0 76 -32.5 118t-83.5 42q-22 0 -48.5 -10t-46.5 -32z" />
    <glyph glyph-name="seven" unicode="7" horiz-adv-x="493" 
d="M124 10l-5 12l284 567v8h-214q-21 0 -41 -3t-39 -13.5t-36 -31.5t-32 -58h-22l-4 9l24 200h438l1 -21l-212 -679z" />
    <glyph glyph-name="eight" unicode="8" horiz-adv-x="556" 
d="M356 414q36 -16 67 -35t54 -45t36 -61t13 -83q0 -47 -21 -85t-56 -64.5t-80.5 -41t-94.5 -14.5q-18 0 -43.5 3t-52.5 10.5t-53.5 20.5t-47.5 33t-34 47.5t-13 65.5q0 48 18 81.5t44 55.5t55 33t52 16q-25 13 -49 28t-43 35.5t-30.5 48.5t-11.5 68q0 45 17.5 79t47 57.5
t67 35.5t77.5 12q28 0 63.5 -7t67 -24.5t53 -47t21.5 -75.5q0 -35 -11.5 -60.5t-29.5 -43.5t-40 -28.5t-42 -14.5zM225 335q-10 -8 -23.5 -23t-26 -36.5t-21 -50t-8.5 -62.5q0 -36 11.5 -61t30.5 -41t42 -23.5t47 -7.5t46.5 6t40.5 19.5t28.5 35t10.5 51.5q0 37 -15.5 66
t-40.5 52t-57 41.5t-65 33.5zM329 427q8 9 17 22.5t16.5 31t12.5 37t5 39.5q0 33 -8.5 55t-22.5 35.5t-32.5 19.5t-39.5 6q-16 0 -33.5 -5t-31.5 -16t-23.5 -29t-9.5 -44q0 -34 12.5 -57.5t33 -41t47.5 -30t57 -23.5z" />
    <glyph glyph-name="nine" unicode="9" horiz-adv-x="529" 
d="M74 18q70 27 120.5 59.5t84.5 73t53 89.5t27 109q-27 -26 -63 -37.5t-70 -11.5q-39 0 -76 14.5t-66 40.5t-46.5 62.5t-17.5 81.5q0 43 13.5 82t42.5 69t74 47.5t107 17.5q69 0 115 -25.5t74.5 -65t40.5 -88.5t12 -97q0 -87 -28.5 -162t-82 -134.5t-130 -101.5t-173.5 -63
zM363 393q2 13 3 28t1 31q0 38 -6.5 77t-19.5 71t-34 52.5t-49 20.5q-51 0 -78.5 -42.5t-27.5 -119.5q0 -76 32.5 -118t83.5 -42q22 0 48.5 10t46.5 32z" />
    <glyph glyph-name="colon" unicode=":" horiz-adv-x="294" 
d="M229 70q0 -35 -24 -58.5t-58 -23.5q-33 0 -57.5 23.5t-24.5 58.5q0 34 24.5 58t57.5 24q34 0 58 -24t24 -58zM147 348q-33 0 -57.5 23.5t-24.5 58.5q0 34 24.5 58t57.5 24q34 0 58 -24t24 -58q0 -35 -24 -58.5t-58 -23.5z" />
    <glyph glyph-name="semicolon" unicode=";" horiz-adv-x="306" 
d="M147 348q-33 0 -57.5 23.5t-24.5 58.5q0 34 24.5 58t57.5 24q34 0 58 -24t24 -58q0 -35 -24 -58.5t-58 -23.5zM97 -201v4q45 37 67.5 88t17.5 105q-18 -8 -35 -8q-33 0 -57.5 23.5t-24.5 58.5q0 34 24.5 58t57.5 24q27 0 45 -13.5t29 -34t15.5 -45t4.5 -46.5
q0 -66 -31.5 -129.5t-92.5 -108.5z" />
    <glyph glyph-name="less" unicode="&#x3c;" horiz-adv-x="582" 
d="M55 222v79l472 223v-87l-381 -176l381 -175v-87z" />
    <glyph glyph-name="equal" unicode="=" horiz-adv-x="637" 
d="M55 112v79h527v-79h-527zM55 330v81h527v-81h-527z" />
    <glyph glyph-name="greater" unicode="&#x3e;" horiz-adv-x="582" 
d="M55 -1v87l380 175l-380 176v87l472 -223v-79z" />
    <glyph glyph-name="question" unicode="?" horiz-adv-x="492" 
d="M291 355q16 -7 25.5 -22t9.5 -35q0 -14 -7.5 -28t-20.5 -25t-31.5 -18t-39.5 -7q-14 0 -34.5 4t-39.5 17t-33 36t-14 61q0 40 15 72.5t37.5 61t49 54t49 51.5t37.5 53t15 59q0 35 -9 56.5t-22.5 33.5t-28.5 16t-26 4q-21 0 -40 -6l-7 -5l-28 -123l-7 -6q-14 0 -28.5 4
t-26 13t-19 22t-7.5 31q0 33 17.5 54t44.5 33t60 16.5t63 4.5q39 0 73.5 -8.5t61 -27.5t42 -49t15.5 -73q0 -45 -21 -79t-53 -61.5t-68.5 -50.5t-68.5 -46.5t-53 -49t-21 -57.5q0 -31 17 -46.5t37 -15.5q41 0 58 23t17 52zM298 70q0 -34 -24.5 -58t-57.5 -24q-34 0 -58 24
t-24 58q0 35 24 58.5t58 23.5q33 0 57.5 -23.5t24.5 -58.5z" />
    <glyph glyph-name="at" unicode="@" horiz-adv-x="1042" 
d="M607 462q-44 -2 -83 -29.5t-68.5 -69.5t-47 -93.5t-17.5 -101.5q0 -55 11 -74.5t26 -19.5q22 0 44.5 25.5t43 65t38.5 86.5t31.5 89.5t21.5 74t9 41.5zM813 -150q-66 -50 -141 -69.5t-144 -19.5q-95 0 -183.5 34t-156 97t-108 152.5t-40.5 201.5q0 88 35.5 176t100.5 159
t158 115.5t207 44.5q110 0 196 -30t145 -83t89.5 -126t30.5 -160q0 -33 -9.5 -72t-29 -78t-49 -76t-69 -65t-89.5 -45.5t-111 -17.5q-21 0 -39.5 9.5t-30 28.5t-14.5 48t7 68l23 87h-14q-15 -46 -35 -89.5t-45 -77t-54.5 -53.5t-63.5 -20q-52 0 -79.5 45.5t-27.5 123.5
q0 61 26 122t66.5 110t91 80t99.5 31q5 0 25 -1t43 -7l5 27h111l5 -4l-74 -416q-9 -46 25 -46q55 6 95 32.5t66 66.5t38.5 89t12.5 99q0 90 -29.5 153.5t-79 103.5t-114.5 58.5t-135 18.5q-79 0 -151 -29.5t-127 -84.5t-87.5 -133.5t-32.5 -176.5q0 -110 33 -189t89 -131
t129.5 -76.5t153.5 -24.5q75 0 129.5 14t108.5 43l5 -1z" />
    <glyph glyph-name="A" unicode="A" horiz-adv-x="764" 
d="M434 0v31l62 18q16 5 22 11.5t6 14.5q0 6 -2.5 15.5t-5.5 18.5l-56 168h-234l-61 -171q-2 -6 -4.5 -15t-2.5 -14q0 -11 4.5 -18.5t17.5 -10.5l69 -17v-31h-239v30l37 14q25 10 34.5 25.5t16.5 32.5l224 598l122 11l6 -5l210 -602q5 -16 16.5 -32.5t38.5 -25.5l39 -13v-33
h-320zM346 622l-106 -300h205z" />
    <glyph glyph-name="B" unicode="B" horiz-adv-x="633" 
d="M31 0v42q51 0 70 18t19 53v474q0 35 -19 53t-70 18v42h315q73 0 118.5 -17.5t71 -43.5t34 -55.5t8.5 -53.5q0 -23 -8 -47t-24.5 -45t-43.5 -37.5t-64 -25.5v-7q39 -7 71 -21t55 -36t35.5 -52.5t12.5 -70.5q0 -41 -13.5 -75.5t-42 -59.5t-72 -39t-103.5 -14h-350zM254 345
v-232q0 -35 18 -53t68 -18q44 0 71.5 14t42.5 36.5t20 49.5t5 53q0 27 -10 53.5t-30 48t-50.5 35t-72.5 13.5h-62zM254 392q7 -1 13.5 -1h13.5q42 0 72.5 11.5t50.5 30.5t29.5 44t9.5 53q0 17 -4 39t-15.5 42t-32 33.5t-54.5 13.5q-49 0 -66 -18.5t-17 -52.5v-195z" />
    <glyph glyph-name="C" unicode="C" horiz-adv-x="670" 
d="M621 20q-16 -8 -41.5 -14t-54 -11t-57 -7.5t-50.5 -2.5q-84 0 -156.5 22.5t-126 68t-84 114t-30.5 159.5t30.5 160t83.5 114.5t125 68.5t155 23q16 0 38 -2t44 -5t41.5 -5t32.5 -2q21 0 34 4t20 9l13 -9l-35 -159l-7 -5h-21q-4 32 -20 55.5t-39 39t-49.5 23t-51.5 7.5
q-59 0 -105 -22.5t-77.5 -63.5t-47.5 -99.5t-16 -131.5q0 -72 16.5 -130t48 -98.5t77.5 -62.5t105 -22q16 0 42.5 3t56.5 15.5t59 37.5t51 69l25 -7l4 -9z" />
    <glyph glyph-name="D" unicode="D" horiz-adv-x="794" 
d="M31 42q51 0 70 18t19 53v474q0 35 -19 53t-70 18v42q48 0 96.5 1t94 1.5t86 1.5t72.5 1q82 0 154 -22.5t125 -67.5t83.5 -111.5t30.5 -154.5q0 -87 -30.5 -153.5t-83.5 -111t-125 -67t-155 -22.5q-31 0 -71.5 1t-86 1.5t-94 1.5t-96.5 1v42zM379 42q59 0 105 22
t77.5 62.5t48 97t16.5 125.5t-16 126t-47.5 97.5t-77.5 63t-105 22.5h-50q-45 -1 -60.5 -20t-15.5 -51v-474q0 -35 18 -53t68 -18h39z" />
    <glyph glyph-name="E" unicode="E" horiz-adv-x="662" 
d="M31 0v42q51 0 70 18t19 53v474q0 35 -19 53t-70 18v42h553l13 -9l-35 -153l-8 -5h-21q-7 66 -40.5 95.5t-96.5 29.5h-56q-50 0 -68 -18.5t-18 -52.5v-212h132q37 0 55.5 21t18.5 84h42v-241l-34 -4l-8 4q0 53 -18.5 72t-55.5 19h-132v-217q0 -34 16.5 -52.5t59.5 -18.5
h97q17 0 41 5t49.5 18.5t50.5 38t44 64.5l20 -7l4 -9l-40 -152h-565z" />
    <glyph glyph-name="F" unicode="F" horiz-adv-x="623" 
d="M31 0v42q51 0 70 18t19 53v474q0 35 -19 53t-70 18v42h553l13 -9l-35 -153l-8 -5h-21q-7 66 -40.5 95.5t-96.5 29.5h-56q-50 0 -68 -18.5t-18 -52.5v-212h132q37 0 55.5 21t18.5 84h42v-241l-34 -4l-8 4q0 53 -18.5 72t-55.5 19h-132v-217q0 -17 4.5 -30t17 -22t35.5 -14
t60 -5l4 -8l-4 -34h-340z" />
    <glyph glyph-name="G" unicode="G" horiz-adv-x="744" 
d="M735 249q-48 0 -64.5 -17.5t-16.5 -53.5v-145q-16 -8 -40.5 -16t-55 -15.5t-66 -12t-74.5 -4.5q-84 0 -156.5 22.5t-126 68t-84 114t-30.5 159.5t30.5 160t83.5 114.5t125 68.5t155 23q16 0 38 -2t44 -5t41.5 -5t32.5 -2q21 0 34 4t20 9l13 -9l-35 -159l-7 -5h-21
q-4 32 -20 55.5t-38.5 39t-49 23t-52.5 7.5q-59 0 -105 -22.5t-77.5 -63.5t-47.5 -99.5t-16 -131.5q0 -72 16.5 -130t48 -98.5t77.5 -62.5t105 -22q10 0 24 1t31.5 4t36.5 9.5t38 17.5v110q0 18 -4.5 31.5t-16 22t-31.5 13t-52 4.5v42h293l4 -34z" />
    <glyph glyph-name="H" unicode="H" horiz-adv-x="859" 
d="M505 0v42q51 0 70 18t19 53v214h-340v-214q0 -17 4 -30.5t15 -22.5t29.5 -13.5t47.5 -4.5l4 -8l-4 -34h-319v42q51 0 70 18t19 53v474q0 35 -19 53t-70 18v42h319l4 -34l-4 -8q-58 0 -77 -18.5t-19 -52.5v-209h340v209q0 35 -19 53t-70 18v42h319l4 -34l-4 -8
q-58 0 -77 -18.5t-19 -52.5v-474q0 -17 4 -30.5t15 -22.5t29.5 -13.5t47.5 -4.5l4 -8l-4 -34h-319z" />
    <glyph glyph-name="I" unicode="I" horiz-adv-x="380" 
d="M31 0v42q51 0 70 18t19 53v474q0 35 -19 53t-70 18v42h314l4 -34l-4 -8q-54 0 -72.5 -18t-18.5 -53v-474q0 -35 18.5 -53t72.5 -18l4 -8l-4 -34h-314z" />
    <glyph glyph-name="J" unicode="J" horiz-adv-x="382" 
d="M122 587q0 35 -19.5 53t-74.5 18v42h319l4 -34l-4 -8q-54 0 -72.5 -18t-18.5 -53v-643q0 -50 -21.5 -87.5t-55 -62t-75.5 -37t-83 -12.5q-28 0 -53 6.5t-44 20t-30 33t-11 45.5q0 18 7.5 31t19 22t26 13t28.5 4l7 -6l28 -124l7 -5q57 0 86.5 28.5t29.5 73.5v700z" />
    <glyph glyph-name="K" unicode="K" horiz-adv-x="804" 
d="M782 38q-23 -22 -59 -37.5t-88 -15.5q-48 0 -81 16t-54 45l-183 252q-9 12 -20.5 19.5t-42.5 7.5v-212q0 -17 4 -30.5t15 -22.5t29.5 -13.5t47.5 -4.5l4 -8l-4 -34h-319v42q51 0 70 18t19 53v474q0 35 -19 53t-70 18v42h319l4 -34l-4 -8q-58 0 -77 -18.5t-19 -52.5v-217
h43l284 272l-83 19v39h261v-39l-94 -19l-260 -236l243 -313q13 -17 34 -24t35 -7t32.5 3t32.5 8l7 -10z" />
    <glyph glyph-name="L" unicode="L" horiz-adv-x="649" 
d="M31 0v42q51 0 70 18t19 53v474q0 35 -19 53t-70 18v42h319l4 -34l-4 -8q-58 0 -77 -18.5t-19 -52.5v-474q0 -33 15.5 -52t60.5 -19h87q17 0 40.5 5t49 18.5t50 38t42.5 64.5l20 -7l4 -9l-40 -152h-552z" />
    <glyph glyph-name="M" unicode="M" horiz-adv-x="1021" 
d="M662 0v42q60 0 80.5 19t17.5 54l-39 477l-232 -592h-24l-244 593l-39 -478q-3 -35 19 -54t82 -19l4 -8l-4 -34h-250v42q51 0 69 19t21 54l39 477q-1 30 -19.5 48t-69.5 18v42h253l190 -494l183 494h248l4 -34l-4 -8q-54 0 -73 -18.5t-20 -54.5l40 -470q1 -17 5.5 -30.5
t14.5 -23t27 -14.5t43 -5l4 -8l-4 -34h-322z" />
    <glyph glyph-name="N" unicode="N" horiz-adv-x="833" 
d="M659 0l-479 579v-466q0 -17 4.5 -30.5t16.5 -22.5t33.5 -13.5t55.5 -4.5l4 -8l-4 -34h-259v42q51 0 70 18t19 53v478q0 31 -19 49t-70 18v42h225l395 -488v375q0 17 -4.5 30.5t-16.5 22.5t-33 13.5t-53 4.5v42h259l4 -34l-4 -8q-54 0 -72.5 -18t-18.5 -53v-587h-53z" />
    <glyph glyph-name="O" unicode="O" horiz-adv-x="766" 
d="M383 -15q-80 0 -146.5 26t-114.5 73.5t-74.5 114.5t-26.5 149q0 83 26.5 150.5t74.5 115.5t114.5 74.5t146.5 26.5t146.5 -26.5t114.5 -74.5t74.5 -115.5t26.5 -150.5q0 -82 -26.5 -149t-74.5 -114.5t-114.5 -73.5t-146.5 -26zM383 33q52 0 92 24t67 66.5t40.5 100
t13.5 125.5q0 67 -13.5 125t-40.5 101t-67 67.5t-92 24.5q-53 0 -92.5 -24.5t-66 -67.5t-40 -101.5t-13.5 -125.5t13.5 -124.5t40 -100t66 -66.5t92.5 -24z" />
    <glyph glyph-name="P" unicode="P" horiz-adv-x="600" 
d="M31 0v42q51 0 70 18t19 53v474q0 35 -19 53t-70 18v42h317q76 0 121.5 -19t70 -48t32 -65.5t7.5 -70.5q0 -29 -13 -63.5t-44 -65t-82.5 -51t-129.5 -20.5h-28t-28 2v-186q0 -17 4.5 -30.5t16.5 -22.5t33.5 -13.5t56.5 -4.5l4 -8l-4 -34h-334zM254 344q7 -1 16.5 -1h16.5
q42 0 73 14t50.5 38.5t29 57.5t9.5 71q0 26 -7 50.5t-21.5 43t-36 29.5t-50.5 11q-47 0 -63.5 -19t-16.5 -52v-243z" />
    <glyph glyph-name="Q" unicode="Q" horiz-adv-x="778" 
d="M908 -82q-6 -16 -16.5 -37.5t-29 -41.5t-46 -34t-65.5 -14q-40 0 -74 14.5t-65 36t-59 46.5t-55.5 46.5t-56 36t-58.5 14.5q-80 1 -146.5 27t-114.5 73.5t-74.5 114.5t-26.5 149q0 83 26.5 150.5t74.5 115.5t114.5 74t146.5 26t146.5 -26t114.5 -74t74.5 -115.5
t26.5 -150.5q0 -69 -18 -126.5t-51 -102.5t-80.5 -76t-105.5 -46v-4q39 -9 75 -23.5t70 -28t67.5 -23t68.5 -9.5q31 0 51.5 3.5t35 10t25 15t21.5 18.5l4 -4v-35zM383 33q52 0 92 24t67 67t40.5 100.5t13.5 125.5q0 67 -13.5 125t-40.5 100.5t-67 67t-92 24.5
q-53 0 -92.5 -24.5t-66 -67t-40 -101t-13.5 -125.5t13.5 -125t40 -100.5t66 -66.5t92.5 -24z" />
    <glyph glyph-name="R" unicode="R" horiz-adv-x="731" 
d="M709 36q-23 -22 -52.5 -36.5t-72.5 -14.5q-39 0 -65 11.5t-44.5 31.5t-30.5 47t-22 58q-14 42 -32.5 83.5t-52.5 70.5q-17 14 -37 22.5t-46 8.5v-205q0 -17 4 -30.5t15 -22.5t29.5 -13.5t47.5 -4.5l4 -8l-4 -34h-319v42q51 0 70 18t19 53v474q0 35 -19 53t-70 18v42h318
q73 0 118 -17.5t70 -45t33.5 -62t8.5 -68.5q0 -23 -8 -49.5t-27.5 -51.5t-51.5 -44.5t-80 -29.5v-7q45 -5 75.5 -41t48.5 -83q11 -29 23 -55t26 -46t31 -31.5t38 -11.5q17 0 29 3t26 8l7 -10zM254 364q7 -1 16.5 -1h16.5q43 0 73.5 13t50 35.5t29 53t9.5 66.5q0 25 -7 48
t-21.5 40.5t-36 28t-50.5 10.5q-47 0 -63.5 -19t-16.5 -52v-223z" />
    <glyph glyph-name="S" unicode="S" horiz-adv-x="518" 
d="M16 190l10 9l48 3q0 -40 15.5 -71t40.5 -52.5t56.5 -32.5t64.5 -11q21 0 42.5 6t39.5 19.5t29.5 35.5t11.5 54q0 41 -25 67.5t-63 48t-82 42t-82 48.5t-63 68.5t-25 101.5q0 47 20 82.5t51.5 59t70.5 35.5t78 12q16 0 38.5 -2t43.5 -5t37.5 -5t22.5 -2q14 0 33.5 1.5
t32.5 11.5l13 -9l-35 -159l-7 -5h-23q0 22 -10 44t-29 40t-47 29.5t-64 11.5q-17 0 -35.5 -4.5t-34 -16t-26 -30.5t-10.5 -48q0 -44 26 -72t64.5 -49.5t83.5 -41.5t83.5 -47.5t64.5 -67t26 -99.5q0 -47 -21 -84.5t-55.5 -64.5t-78 -41.5t-87.5 -14.5q-12 0 -35.5 1
t-54.5 5.5t-67.5 15t-75.5 30.5z" />
    <glyph glyph-name="T" unicode="T" horiz-adv-x="666" 
d="M170 0v43q56 0 76 18t20 53v539q-32 0 -65.5 -5.5t-64.5 -19.5t-56.5 -40t-41.5 -66l-22 7l-4 9l24 162h595l23 -162l-4 -9l-22 -7q-16 40 -41.5 66t-56 40t-64.5 19.5t-66 5.5v-539q0 -35 19.5 -53t78.5 -18l4 -8l-4 -35h-328z" />
    <glyph glyph-name="U" unicode="U" horiz-adv-x="821" 
d="M639 587q0 35 -20 53t-71 18v42h241l4 -34l-4 -8q-54 0 -72.5 -18t-18.5 -53v-309q0 -92 -26.5 -149.5t-65.5 -89.5t-84 -43t-81 -11q-63 0 -121.5 11.5t-103.5 43t-72 88t-27 146.5v313q0 35 -19 53t-70 18v42h326l4 -34l-4 -8q-31 0 -50.5 -4.5t-31 -13.5t-15.5 -22.5
t-4 -30.5v-318q0 -70 14 -113.5t39.5 -68t60 -33t75.5 -8.5t77 11t62.5 37t42 68.5t15.5 106.5v318z" />
    <glyph glyph-name="V" unicode="V" horiz-adv-x="727" 
d="M359 0l-258 596q-7 16 -18.5 32t-36.5 26l-39 13v33h328v-31l-64 -18q-29 -8 -29 -26q0 -8 2.5 -16.5t5.5 -17.5l160 -406l156 409q2 7 4 15.5t2 13.5q0 11 -4.5 18.5t-17.5 10.5l-69 17v31h239v-30l-37 -14q-24 -9 -34 -25t-17 -33l-248 -598h-25z" />
    <glyph glyph-name="W" unicode="W" horiz-adv-x="1092" 
d="M744 0l-195 487l-185 -487h-25l-238 596q-7 16 -18.5 32t-36.5 26l-39 13v33h328v-31l-64 -18q-29 -8 -29 -26q0 -8 2.5 -16.5t5.5 -17.5l140 -404l127 381l-11 28q-7 16 -18.5 32t-36.5 26l-39 13v33h328v-31l-64 -18q-29 -8 -29 -26q0 -8 2.5 -16.5t5.5 -17.5l140 -404
l136 407q2 7 4 15.5t2 13.5q0 11 -4.5 18.5t-17.5 10.5l-69 17v31h239v-30l-37 -14q-24 -9 -34 -25t-17 -33l-228 -598h-25z" />
    <glyph glyph-name="X" unicode="X" horiz-adv-x="747" 
d="M381 0v31l66 18q17 5 24 14t7 21q0 9 -2 14.5t-6 10.5l-127 171l-156 -174q-5 -5 -8 -12t-3 -17q0 -22 25 -29l67 -17v-31h-261v33q32 9 54.5 23t45.5 39l204 228l-204 276q-10 13 -19.5 25t-20.5 21t-25 15.5t-32 9.5v30h347v-31l-62 -18q-14 -5 -22.5 -12.5t-8.5 -22.5
q0 -13 8 -25l127 -171l156 174q5 6 8 12.5t3 15.5q0 23 -25 30l-67 17v31h261v-30l-36 -14q-14 -6 -28.5 -17t-30.5 -29l-209 -233l203 -273q21 -28 46.5 -44t59.5 -27v-33h-359z" />
    <glyph glyph-name="Y" unicode="Y" horiz-adv-x="689" 
d="M181 0v42q55 0 74.5 18t19.5 53v170l-174 313q-9 17 -22 34t-33 24l-39 13v33h325v-31l-62 -18q-32 -10 -32 -33q0 -6 2.5 -13t6.5 -14l137 -259l145 262q5 10 7 16.5t2 11.5q0 11 -5 18.5t-19 11.5l-67 17v31h235v-30l-37 -14q-19 -8 -29.5 -25.5t-21.5 -32.5l-185 -308
v-177q0 -17 4 -30.5t15 -22.5t29.5 -13.5t47.5 -4.5l4 -8l-4 -34h-324z" />
    <glyph glyph-name="Z" unicode="Z" horiz-adv-x="661" 
d="M34 0v38l400 611l-2 10l-209 -10q-29 -2 -51 -16t-37 -36.5t-23 -51.5t-8 -60l-12 -8l-35 7l11 216h537v-38l-400 -613l3 -8l246 11q59 3 91 50t32 123l12 9l38 -9l-10 -225h-583z" />
    <glyph glyph-name="bracketleft" unicode="[" horiz-adv-x="311" 
d="M55 -236v994h192l4 -39l-4 -8h-106v-900h106l4 -8l-4 -39h-192z" />
    <glyph glyph-name="backslash" unicode="\" horiz-adv-x="375" 
d="M287 -236l-267 994h68l267 -994h-68z" />
    <glyph glyph-name="bracketright" unicode="]" horiz-adv-x="311" 
d="M64 -236l-4 39l4 8h106v900h-106l-4 8l4 39h192v-994h-192z" />
    <glyph glyph-name="asciicircum" unicode="^" horiz-adv-x="575" 
d="M441 231l-154 351l-153 -351h-79l193 442h79l193 -442h-79z" />
    <glyph glyph-name="underscore" unicode="_" horiz-adv-x="698" 
d="M55 -126v79h588v-79h-588z" />
    <glyph glyph-name="grave" unicode="`" horiz-adv-x="325" 
d="M235 550l-180 194q13 31 35 46q23 17 54 17l126 -231l-15 -17z" />
    <glyph glyph-name="a" unicode="a" horiz-adv-x="502" 
d="M280 233q-14 0 -37 -4t-45 -15.5t-38 -31t-16 -49.5q0 -37 16.5 -52.5t41.5 -15.5q10 0 21.5 4t22.5 12t20 21.5t14 32.5v98zM489 23q-25 -19 -54.5 -27t-55.5 -8q-30 0 -49 9t-30 23.5t-15.5 31.5t-4.5 33h-4q-1 -6 -7.5 -22t-21.5 -32.5t-39 -29.5t-60 -13
q-60 0 -95 33.5t-35 94.5q0 52 30 81t72 43.5t86.5 18t73.5 3.5v108q0 45 -30 72.5t-90 27.5l-7 -5l-31 -123l-7 -6q-14 0 -28 4t-26 12.5t-19.5 21t-7.5 30.5q0 25 16.5 45t45 34t67.5 21.5t84 7.5q81 0 120 -37.5t39 -106.5v-242q0 -43 22.5 -60.5t61.5 -17.5l6 -6z" />
    <glyph glyph-name="b" unicode="b" horiz-adv-x="599" 
d="M217 117q8 -24 21.5 -41t29.5 -27.5t31.5 -15t27.5 -4.5q30 0 54 16.5t40.5 44.5t25 65.5t8.5 79.5q0 37 -8 70.5t-25 58.5t-43.5 40t-62.5 15q-11 0 -24.5 -3t-27 -9t-26 -15t-21.5 -22v-253zM72 -3q9 26 13 58.5t4 61.5v564l-84 18v28l204 58l8 -7v-361h4
q17 30 38.5 48.5t43 29t40.5 14t32 3.5q58 0 97.5 -21.5t64.5 -56.5t36 -79.5t11 -90.5q0 -57 -16 -107.5t-47 -88t-76.5 -59t-103.5 -21.5q-27 0 -50 4.5t-43 9.5t-38.5 9.5t-37.5 4.5q-22 0 -43.5 -6t-40.5 -22z" />
    <glyph glyph-name="c" unicode="c" 
d="M464 119q-30 -63 -84 -97t-123 -34q-47 0 -91 14.5t-77.5 45.5t-53.5 79t-20 116q0 72 24 123t60 83.5t78.5 47.5t80.5 15q50 0 86 -12t59.5 -30.5t34.5 -40.5t11 -43q0 -39 -21.5 -60.5t-59.5 -21.5l-9 6l-24 129l-2 3q-14 15 -30.5 22t-44.5 7q-18 0 -38 -10.5
t-37.5 -35t-29 -63.5t-11.5 -96q0 -53 15 -88t37.5 -56t48.5 -29.5t49 -8.5q48 0 86.5 14t65.5 37l7 -1z" />
    <glyph glyph-name="d" unicode="d" horiz-adv-x="610" 
d="M382 384q-14 49 -43.5 67.5t-66.5 18.5q-30 0 -54 -16t-40.5 -44t-25 -65.5t-8.5 -80.5q0 -37 8.5 -70.5t25.5 -58.5t43.5 -39.5t62.5 -14.5q29 0 55 11t43 39v253zM390 -13l-8 7v87h-4q-31 -54 -70 -73.5t-84 -19.5q-56 0 -96 21.5t-65 56.5t-36.5 79.5t-11.5 91.5
q0 57 16 107t46.5 87.5t76 59t104.5 21.5q7 0 22 -0.5t32.5 -4.5t36 -12t33.5 -23v209l-84 18v28l204 58l8 -7v-687l84 -18v-28z" />
    <glyph glyph-name="e" unicode="e" 
d="M345 366q0 56 -20 80.5t-65 24.5q-14 0 -30 -5.5t-31 -18.5t-27 -33t-18 -48h191zM464 119q-30 -63 -84 -97t-123 -34q-47 0 -90.5 14.5t-77.5 45.5t-54 79t-20 116q0 72 24 123t60.5 83.5t79 47.5t79.5 15q54 0 92.5 -14.5t63 -40t36.5 -60t12 -75.5h-316
q-2 -14 -3 -26.5t-1 -29.5q0 -53 15 -88t37.5 -56t48.5 -29.5t49 -8.5q48 0 86.5 14.5t65.5 36.5l7 -1z" />
    <glyph glyph-name="f" unicode="f" horiz-adv-x="372" 
d="M16 0v39q48 0 66 18.5t18 55.5v334h-84v33l84 20v91q0 50 21 87.5t54.5 62t74 37t79.5 12.5q28 0 53 -7t44 -20t30 -33t11 -45q0 -18 -7.5 -31t-19 -22t-26 -13t-28.5 -4l-7 6l-28 124l-7 5q-59 0 -87.5 -28.5t-28.5 -73.5v-148h168l-12 -45l-11 -8h-145v-334
q0 -18 4.5 -32t17.5 -23.5t36.5 -14t62.5 -4.5l4 -8l-4 -31h-333z" />
    <glyph glyph-name="g" unicode="g" horiz-adv-x="540" 
d="M260 205q18 0 34 7t29 23t20.5 41t7.5 61t-7.5 61.5t-20.5 41.5t-29 23t-34 7t-34.5 -7t-29 -23t-20 -41.5t-7.5 -61.5q0 -72 27.5 -102t63.5 -30zM145 -55q-8 -11 -17 -29.5t-9 -49.5q0 -29 17 -47t41.5 -29t52 -15t47.5 -4q48 0 80.5 8.5t52 21t28 27.5t8.5 29
q0 25 -16.5 40.5t-44 24t-64.5 11t-77 2.5q-24 0 -50 2.5t-49 7.5zM113 -43q-31 17 -50.5 42.5t-19.5 63.5q0 20 8 35t22 28.5t32.5 27t38.5 31.5v5q-43 18 -69 54.5t-26 92.5q0 45 19 78t49.5 54.5t68 32t74.5 10.5q35 0 69.5 -8.5t63.5 -26.5l137 45l6 -7l-10 -80l-91 11
l-2 -3q18 -20 28 -47t10 -59q0 -44 -18 -77t-47.5 -54.5t-67.5 -32t-78 -10.5q-19 0 -43 3.5t-46 11.5q-15 -12 -22 -28t-7 -30q0 -27 28 -41t74 -14q45 0 93 -3.5t87 -19t64.5 -47.5t25.5 -88q0 -40 -20.5 -76.5t-56.5 -64t-85.5 -44t-108.5 -16.5q-44 0 -86.5 8
t-76.5 24.5t-55 41.5t-21 58q0 23 8.5 39.5t23.5 29.5t35 23.5t42 21.5v5z" />
    <glyph glyph-name="h" unicode="h" horiz-adv-x="662" 
d="M359 0v39q42 0 57 18.5t15 55.5v208q0 51 -20.5 83.5t-73.5 32.5q-6 0 -19 -2t-29 -9t-32 -20t-29 -35v-258q0 -37 18 -55.5t69 -18.5l4 -8l-4 -31h-299v39q48 0 66 18.5t18 55.5v568l-84 18v28l204 58l8 -7v-361h4q26 48 67.5 71.5t96.5 23.5q81 0 122 -46.5t41 -123.5
v-229q0 -37 19 -55.5t63 -18.5l5 -8l-5 -31h-282z" />
    <glyph glyph-name="i" unicode="i" horiz-adv-x="334" 
d="M161 578q-17 0 -32.5 6.5t-27.5 18.5t-19 27.5t-7 33.5t7 33.5t19 27t27.5 18.5t32.5 7q18 0 33.5 -7t27 -18.5t18.5 -27t7 -33.5t-7 -33.5t-18.5 -27.5t-27 -18.5t-33.5 -6.5zM16 0v39q48 0 66 18.5t18 55.5v290l-84 18v33l204 58l8 -7v-392q0 -37 18 -55.5t68 -18.5
l4 -8l-4 -31h-298z" />
    <glyph glyph-name="j" unicode="j" horiz-adv-x="329" 
d="M161 578q-17 0 -32.5 6.5t-27.5 18.5t-19 27.5t-7 33.5t7 33.5t19 27t27.5 18.5t32.5 7q18 0 33.5 -7t27 -18.5t18.5 -27t7 -33.5t-7 -33.5t-18.5 -27.5t-27 -18.5t-33.5 -6.5zM99 403l-84 18v33l204 58l8 -7v-600q0 -50 -21 -87.5t-54.5 -62t-74 -37t-79.5 -12.5
q-28 0 -53 7t-44 20t-30 32.5t-11 45.5q0 18 7.5 31t19 22t26 13t28.5 4l7 -6l28 -126l7 -5q57 0 86.5 28.5t29.5 74.5v556z" />
    <glyph glyph-name="k" unicode="k" horiz-adv-x="629" 
d="M619 25q-17 -16 -40.5 -26.5t-64.5 -10.5q-28 0 -54.5 11t-43.5 33l-137 186q-7 8 -18.5 13t-32.5 6v-124q0 -37 17.5 -55.5t66.5 -18.5l4 -8l-4 -31h-296v39q48 0 66 18.5t18 55.5v568l-84 18v28l204 58l8 -7v-513h26l184 186l-88 16v33h243v-33l-73 -16l-161 -142v-6
l185 -228q18 -19 32.5 -22.5t42.5 -3.5l5 -7z" />
    <glyph glyph-name="l" unicode="l" horiz-adv-x="335" 
d="M16 0v39q48 0 66 18.5t18 55.5v568l-84 18v28l204 58l8 -7v-665q0 -37 18 -55.5t69 -18.5l4 -8l-4 -31h-299z" />
    <glyph glyph-name="m" unicode="m" horiz-adv-x="985" 
d="M682 0v39q42 0 57 18.5t15 55.5v208q0 51 -20.5 83.5t-73.5 32.5q-8 0 -20.5 -2t-27.5 -8t-31 -17.5t-29 -30.5q3 -18 3 -37v-229q0 -37 19.5 -55.5t66.5 -18.5l5 -8l-5 -31h-286v39q42 0 57 18.5t15 55.5v208q0 51 -20.5 83.5t-73.5 32.5q-5 0 -17 -2t-27.5 -9.5
t-31.5 -22t-29 -38.5v-252q0 -37 18 -55.5t69 -18.5l4 -8l-4 -31h-299v39q48 0 66 18.5t18 55.5v290l-84 18v33l204 58l8 -7v-95h4q26 51 68 76.5t92 25.5q60 0 97.5 -27t53.5 -72q27 47 70 73t106 26q81 0 122 -46.5t41 -123.5v-229q0 -37 19 -55.5t63 -18.5l5 -8l-5 -31
h-282z" />
    <glyph glyph-name="n" unicode="n" horiz-adv-x="660" 
d="M357 0v39q42 0 57 18.5t15 55.5v208q0 51 -20.5 83.5t-73.5 32.5q-5 0 -17.5 -2t-28 -9.5t-32 -22t-29.5 -38.5v-252q0 -37 17.5 -55.5t65.5 -18.5l4 -8l-4 -31h-295v39q48 0 66 18.5t18 55.5v290l-84 18v33l204 58l8 -7v-95h4q53 102 162 102q81 0 122 -46.5t41 -123.5
v-229q0 -37 19 -55.5t63 -18.5l5 -8l-5 -31h-282z" />
    <glyph glyph-name="o" unicode="o" horiz-adv-x="558" 
d="M279 31q57 0 89.5 55.5t32.5 163.5q0 106 -32.5 162.5t-89.5 56.5t-89.5 -56.5t-32.5 -162.5q1 -108 33 -163.5t89 -55.5zM543 250q0 -56 -17 -104t-50 -83t-82.5 -55t-114.5 -20t-114.5 20t-82.5 55t-50 83t-17 104q0 55 17 103t50 83.5t82.5 55.5t114.5 20t114.5 -20
t82.5 -55.5t50 -83.5t17 -103z" />
    <glyph glyph-name="p" unicode="p" horiz-adv-x="610" 
d="M228 117q14 -49 43.5 -68t66.5 -19q30 0 53.5 16.5t40 44.5t25.5 66t9 80q0 37 -8.5 70t-25.5 58t-43.5 39.5t-62.5 14.5q-29 0 -55 -13t-43 -41v-248zM26 -289v39q40 0 57 17.5t17 56.5v579l-84 18v33l204 58l8 -7v-93h4q28 59 68.5 79.5t85.5 20.5q58 0 97.5 -21.5
t64.5 -56.5t36 -79.5t11 -90.5q0 -57 -16 -107.5t-47 -88t-76.5 -59t-103.5 -21.5q-5 0 -19 0.5t-32 4.5t-38 12t-35 23v-203q0 -19 4 -33t16.5 -23.5t35.5 -14t61 -4.5l4 -8l-4 -31h-319z" />
    <glyph glyph-name="q" unicode="q" horiz-adv-x="608" 
d="M265 -289v39q68 0 92.5 16t24.5 54v260h-4q-17 -29 -38.5 -47t-43 -28t-40.5 -13.5t-32 -3.5q-58 0 -98 21.5t-64.5 56.5t-35.5 79.5t-11 91.5q0 57 16 107t47 87.5t76 59t104 21.5q27 0 49.5 -4.5t43 -9.5t39 -9.5t37.5 -4.5q22 0 43.5 6t40.5 22l16 -9
q-9 -26 -13 -58.5t-4 -61.5v-559q0 -38 17.5 -56t62.5 -18l4 -8l-4 -31h-325zM382 382q-8 24 -22 41t-29.5 27.5t-31 15t-27.5 4.5q-30 0 -54 -16t-40.5 -43.5t-25 -65t-8.5 -79.5q0 -38 8 -71.5t25.5 -59t43.5 -40t62 -14.5q9 0 22.5 2t28 7.5t27.5 15t21 24.5v252z" />
    <glyph glyph-name="r" unicode="r" horiz-adv-x="473" 
d="M16 0v39q48 0 66 18.5t18 55.5v290l-84 18v33l204 57l8 -6l-7 -132h7q8 25 22.5 50t33.5 44.5t43 32t51 12.5q45 0 67.5 -24.5t22.5 -56.5q0 -17 -6 -34.5t-18 -31t-29 -22.5t-39 -9l-6 4l-30 75l-6 5q-13 0 -28 -6.5t-29.5 -17.5t-27 -25.5t-21.5 -30.5v-225
q0 -18 4 -32t17 -23.5t35.5 -14t60.5 -4.5l4 -8l-4 -31h-329z" />
    <glyph glyph-name="s" unicode="s" horiz-adv-x="421" 
d="M19 151l8 7l41 4q2 -26 13 -49.5t28.5 -41t39.5 -28t46 -10.5q12 0 26 3.5t26.5 12.5t20.5 25t8 40q0 26 -17.5 44t-43.5 32.5t-57 29t-57 35t-43.5 48.5t-17.5 71q0 34 15 60t40 43.5t58.5 26t71.5 8.5q35 0 58 -4.5t43 -4.5q10 0 21.5 1.5t25.5 7.5l10 -5l-14 -141
l-10 -5h-29q0 21 -6 40.5t-18 35t-31 25t-46 9.5q-9 0 -20.5 -3t-22 -11t-18 -21.5t-7.5 -33.5q0 -29 18 -48.5t44.5 -34.5t58 -29.5t58 -34t44.5 -47t18 -69.5q0 -34 -15.5 -61.5t-41.5 -47.5t-60.5 -31t-72.5 -11q-10 0 -29 0.5t-44 4t-53.5 10.5t-56.5 20z" />
    <glyph glyph-name="t" unicode="t" horiz-adv-x="397" 
d="M386 42q-29 -26 -65.5 -40t-80.5 -14q-29 0 -55.5 5.5t-46.5 23.5t-31.5 51t-11.5 87v279h-89v28l194 160h23v-127h168l-11 -53l-10 -8h-147v-263q0 -39 7.5 -62t20 -34.5t28.5 -14.5t32 -3q18 0 38.5 4.5t35.5 11.5l6 -6z" />
    <glyph glyph-name="u" unicode="u" horiz-adv-x="655" 
d="M435 -12l-8 7v88h-4q-52 -95 -164 -95q-81 0 -122 46.5t-41 123.5v205q0 37 -19.5 50.5t-66.5 13.5l-5 8l4 35l199 30h16v-321q0 -52 20.5 -84t73.5 -32q6 0 19 2t28.5 9.5t32 22t29.5 38.5v228q0 37 -18 50.5t-68 13.5l-4 8l4 34l197 31h17v-408l84 -17v-29z" />
    <glyph glyph-name="v" unicode="v" horiz-adv-x="579" 
d="M253 -1l-174 438l-74 30v33h282v-33l-72 -30l111 -299h6l107 299l-72 30v33h207v-33l-74 -30l-181 -438h-66z" />
    <glyph glyph-name="w" unicode="w" horiz-adv-x="913" 
d="M590 -1l-137 347l-138 -347h-67l-169 438l-74 30v33h281v-33l-71 -30l106 -299h6l94 272l-11 27l-79 30v33h298v-33l-72 -30l107 -299h6l103 299l-72 30v33h207v-33l-74 -30l-176 -438h-68z" />
    <glyph glyph-name="x" unicode="x" horiz-adv-x="555" 
d="M271 0v33l64 30l-76 118l-9 17l-97 -135l66 -30v-33h-214v33l76 30l143 171l-140 203l-78 30v33h278v-33l-63 -30l67 -107l10 -19l101 126l-63 30v33h213v-33l-81 -30l-145 -160l150 -214l77 -30v-33h-279z" />
    <glyph glyph-name="y" unicode="y" horiz-adv-x="574" 
d="M260 0l-184 437l-75 30v33h281v-33l-71 -30l110 -291h6l104 291l-71 30v33h209v-33l-75 -30l-251 -618q-14 -35 -33 -57t-39.5 -34.5t-42 -17t-40.5 -4.5q-52 0 -77.5 27t-25.5 65q0 36 24 55.5t56 19.5l7 -6l39 -108l6 -5q30 0 51 24t35 63z" />
    <glyph glyph-name="z" unicode="z" horiz-adv-x="467" 
d="M19 0v27l269 433l-2 7l-131 -8q-19 -1 -34.5 -11t-26 -26.5t-16.5 -38.5t-6 -46l-9 -6l-28 5l8 164h391v-27l-264 -433l2 -6l152 7q40 2 62.5 36t22.5 88l9 6l30 -6l-7 -165h-422z" />
    <glyph glyph-name="braceleft" unicode="{" horiz-adv-x="448" 
d="M385 -236q-118 0 -167.5 33.5t-49.5 93.5q0 26 3.5 55.5t7 59.5t7 59t3.5 54q0 31 -5.5 53.5t-20.5 37.5t-41 22t-67 7v45q41 0 67 7t41 22t20.5 37.5t5.5 53.5q0 25 -3.5 54t-7 59t-7 59.5t-3.5 55.5q0 60 49.5 93.5t167.5 33.5l3 -33q-26 0 -48 -4t-38.5 -13.5
t-26 -25.5t-9.5 -40q0 -33 1.5 -61t4 -54.5t4 -54t1.5 -60.5q0 -30 -10 -56.5t-29.5 -47t-49 -32.5t-67.5 -12v-7q38 0 67.5 -12t49 -32.5t29.5 -47t10 -56.5q0 -33 -1.5 -60.5t-4 -54t-4 -54.5t-1.5 -61q0 -24 9.5 -40t26 -25.5t38.5 -13.5t48 -4z" />
    <glyph glyph-name="bar" unicode="|" horiz-adv-x="172" 
d="M55 -266v1054h62v-1054h-62z" />
    <glyph glyph-name="braceright" unicode="}" horiz-adv-x="448" 
d="M60 -203q25 0 47.5 4t39 13.5t26 25.5t9.5 40q0 33 -1.5 61t-4 54.5t-4 54t-1.5 60.5q0 30 10 56.5t29.5 47t49 32.5t67.5 12v7q-38 0 -67.5 12t-49 32.5t-29.5 47t-10 56.5q0 33 1.5 60.5t4 54t4 54.5t1.5 61q0 24 -9.5 40t-26 25.5t-39 13.5t-47.5 4l3 33
q118 0 167.5 -33.5t49.5 -93.5q0 -26 -3.5 -55.5t-7 -59.5t-7 -59t-3.5 -54q0 -31 5.5 -53.5t20.5 -37.5t41 -22t67 -7v-45q-41 0 -67 -7t-41 -22t-20.5 -37.5t-5.5 -53.5q0 -25 3.5 -54t7 -59t7 -59.5t3.5 -55.5q0 -60 -49.5 -93.5t-167.5 -33.5z" />
    <glyph glyph-name="asciitilde" unicode="~" horiz-adv-x="601" 
d="M546 305q-17 -54 -55.5 -87.5t-86.5 -33.5q-32 0 -58.5 11t-51 24t-49.5 24t-53 11q-30 0 -49 -13t-38 -49l-50 41q16 33 35 53t37.5 31t36 14.5t31.5 3.5q27 0 54 -11t54 -23.5t54 -23.5t53 -11t46.5 19t35.5 53z" />
    <glyph glyph-name="uni00A0" unicode="&#xa0;" horiz-adv-x="320" 
 />
    <glyph glyph-name="exclamdown" unicode="&#xa1;" horiz-adv-x="279" 
d="M219 472q0 -35 -24.5 -58.5t-57.5 -23.5q-34 0 -58 23.5t-24 58.5q0 34 24 58t58 24q33 0 57.5 -24t24.5 -58zM117 319l42 -6l53 -533q0 -31 -22 -52.5t-52 -21.5q-31 0 -52.5 21.5t-21.5 52.5z" />
    <glyph glyph-name="cent" unicode="&#xa2;" 
d="M233 0v90q-44 3 -83.5 19.5t-69.5 47.5t-47.5 77.5t-17.5 109.5q0 66 20.5 114t52 81t70.5 50.5t75 21.5v94h50v-93q43 -3 74.5 -16t51.5 -31t30 -38.5t10 -39.5q0 -39 -21.5 -60.5t-59.5 -21.5l-9 6l-24 129l-2 3q-11 11 -22 18t-28 9v-385h9q48 0 86.5 14t65.5 37l7 -1
l13 -15q-27 -57 -74 -90.5t-107 -39.5v-90h-50zM233 567q-16 -6 -32.5 -20.5t-29.5 -38.5t-21 -59t-8 -82q0 -37 7.5 -65.5t20.5 -49t29 -34t34 -21.5v370z" />
    <glyph glyph-name="sterling" unicode="&#xa3;" horiz-adv-x="592" 
d="M40 0v48q40 0 63.5 8.5t35.5 21.5t15.5 29.5t3.5 33.5q0 49 -2 92t-4 84h-112v27l108 21q-3 50 -6 96.5t-3 95.5q0 50 21.5 87.5t55 62t76 37t84.5 12.5q60 0 99 -27t39 -78q0 -18 -7.5 -31t-19 -22t-26 -13t-28.5 -4l-7 6l-28 124l-7 5q-51 0 -84 -28.5t-33 -73.5
q0 -61 4.5 -124.5t4.5 -123.5h228l-10 -49h-218q0 -30 -5 -61.5t-14.5 -60.5t-23.5 -54.5t-32 -44.5l2 -6h252q29 0 45 17.5t24 40.5l23 -7l3 -9l-25 -132h-492z" />
    <glyph glyph-name="currency" unicode="&#xa4;" horiz-adv-x="562" 
d="M281 194q48 0 80 36t32 96q0 61 -32 97t-80 36t-79.5 -36t-31.5 -97q0 -60 31.5 -96t79.5 -36zM391 160q-50 -33 -110 -33q-30 0 -58 8.5t-51 23.5l-65 -73l-50 50l69 65q-44 53 -44 125q0 70 42 123l-69 66l50 50l64 -73q24 16 52 25t60 9q31 0 59.5 -9t52.5 -25l64 73
l50 -50l-69 -65q20 -26 31.5 -57.5t11.5 -66.5t-12 -67t-32 -58l69 -65l-50 -50z" />
    <glyph glyph-name="yen" unicode="&#xa5;" horiz-adv-x="689" 
d="M181 0v42q55 0 74.5 18t19.5 53v130h-217l10 48h202l-169 305q-9 17 -22 34t-33 24l-39 13v33h325v-31l-62 -18q-17 -5 -24 -13t-7 -17q0 -15 8 -30l137 -259l145 262q5 10 7 16.5t2 11.5q0 10 -5 18t-19 12l-67 17v31h235v-30l-37 -14q-19 -8 -29.5 -25.5t-21.5 -32.5
l-185 -307h222l-10 -48h-212v-130q0 -17 4 -30.5t15 -22.5t29.5 -13.5t47.5 -4.5l4 -8l-4 -34h-324z" />
    <glyph glyph-name="brokenbar" unicode="&#xa6;" horiz-adv-x="174" 
d="M55 300v370h64v-370h-64zM55 -220v370h64v-370h-64z" />
    <glyph glyph-name="section" unicode="&#xa7;" horiz-adv-x="598" 
d="M432 12q17 -23 26.5 -51.5t9.5 -65.5q0 -47 -21 -82t-51.5 -59t-64.5 -36t-59 -12q-39 0 -72 6t-56.5 18t-37 30.5t-13.5 44.5q0 30 21.5 49t47.5 19q9 0 20 -3.5t19 -9.5q0 -45 17 -74.5t59 -29.5q15 0 33 4.5t33 15.5t25.5 30.5t10.5 48.5q0 39 -25.5 64.5t-63.5 45.5
t-83 38.5t-83 45t-63.5 65t-25.5 98.5q0 31 10 60t27.5 53.5t41.5 43t52 30.5q-17 23 -26.5 51.5t-9.5 65.5q0 46 21 81.5t51.5 59.5t64 36t59.5 12q39 0 72 -6t56.5 -18t37 -30.5t13.5 -44.5q0 -30 -21.5 -49t-47.5 -19q-9 0 -20 3.5t-19 9.5q0 45 -17 74.5t-59 29.5
q-15 0 -33 -4.5t-33 -16t-25.5 -30.5t-10.5 -48q0 -40 25.5 -65t63.5 -45t83 -38.5t83 -45t63.5 -65.5t25.5 -98q0 -32 -10 -60.5t-28 -53t-42 -43t-51 -30.5zM404 42q24 15 43 44.5t19 72.5q0 39 -29 64.5t-71 46.5t-89 43t-84 56q-24 -16 -42.5 -45t-18.5 -72
q0 -26 13.5 -46t35.5 -35.5t50.5 -29.5t59 -28.5t60 -31.5t53.5 -39z" />
    <glyph glyph-name="dieresis" unicode="&#xa8;" horiz-adv-x="460" 
d="M129 556q-30 0 -52 21.5t-22 52.5q0 30 22 52t52 22t52 -22t22 -52q0 -31 -22 -52.5t-52 -21.5zM331 556q-30 0 -52 21.5t-22 52.5q0 30 22 52t52 22t52 -22t22 -52q0 -31 -22 -52.5t-52 -21.5z" />
    <glyph glyph-name="copyright" unicode="&#xa9;" horiz-adv-x="756" 
d="M378 22q-68 0 -127.5 26t-104 70.5t-70.5 104t-26 127.5q0 67 26 126.5t70.5 104.5t104 71t127.5 26t127.5 -26t104 -70.5t70.5 -104t26 -127.5q0 -67 -26 -126.5t-70.5 -104.5t-104.5 -71t-127 -26zM667 350q0 59 -23 111.5t-62.5 92t-92 62.5t-111.5 23
q-62 0 -114.5 -22t-91.5 -61t-61 -92t-22 -114q0 -59 23 -111.5t62.5 -92t92 -62.5t111.5 -23q61 0 114 22t92 61t61 92t22 114zM505 168q-9 -5 -23 -8.5t-29.5 -6t-31.5 -4t-29 -1.5q-46 0 -85.5 12.5t-69 37t-46.5 61.5t-17 85t17 85t46.5 62t69 37.5t85.5 12.5q9 0 21 -1
t24 -2.5t22.5 -2.5t17.5 -1q12 0 19.5 2t11.5 4l7 -5l-19 -94l-5 -3h-11q-2 18 -10.5 31t-21.5 21.5t-27.5 12.5t-28.5 4q-28 0 -51 -12t-39 -33.5t-24.5 -51.5t-8.5 -66q0 -72 33 -117t90 -45q9 0 24 2t32 9t33.5 21t28.5 38l12 -4l1 -4z" />
    <glyph glyph-name="ordfeminine" unicode="&#xaa;" horiz-adv-x="396" 
d="M206 540q-9 0 -21.5 -2.5t-24 -9.5t-19.5 -18t-8 -28t10 -25t26 -8q7 0 18.5 6.5t18.5 25.5v59zM341 421q-28 -21 -76 -21q-18 0 -29 5.5t-18 13.5t-9.5 17.5t-2.5 17.5h-4q0 -3 -3.5 -12t-12 -18t-23 -16.5t-35.5 -7.5q-36 0 -57 19.5t-21 52.5q0 31 18 48.5t43 26
t51.5 10.5t43.5 2v62q0 29 -18 42t-47 13l-4 -3l-17 -69l-4 -4q-24 0 -40 9.5t-16 32.5q0 30 36 46.5t91 16.5q56 0 79.5 -23t23.5 -65v-137q0 -23 13.5 -32.5t38.5 -9.5l3 -4zM50 304v44h296v-44h-296z" />
    <glyph glyph-name="guillemotleft" unicode="&#xab;" horiz-adv-x="587" 
d="M273 2l-218 254v11l227 254l40 -41l3 -14l-163 -204l163 -213l-3 -13zM475 2l-218 254v11l227 254l40 -41l3 -14l-163 -204l163 -213l-3 -13z" />
    <glyph glyph-name="logicalnot" unicode="&#xac;" horiz-adv-x="637" 
d="M503 106v226h-448v79h527v-305h-79z" />
    <glyph glyph-name="uni00AD" unicode="&#xad;" horiz-adv-x="428" 
d="M55 222v79h318v-79h-318z" />
    <glyph glyph-name="registered" unicode="&#xae;" horiz-adv-x="409" 
d="M359 550q0 -32 -11.5 -60t-32.5 -48.5t-49.5 -32.5t-62.5 -12q-33 0 -61 12t-48.5 32.5t-32 48.5t-11.5 60q0 33 11.5 61.5t32 49.5t48.5 33t61 12q34 0 62.5 -12t49.5 -33t32.5 -49.5t11.5 -61.5zM295 481q-5 -5 -13 -8t-20 -3q-19 0 -27.5 9.5t-13.5 22.5
q-5 9 -8.5 17.5t-12.5 15.5q-7 7 -19 7v-40q0 -8 4.5 -12.5t17.5 -4.5l4 -4l-4 -10h-80v14q22 0 22 17v100q0 17 -22 17v14h79q37 0 49 -14.5t12 -29.5q0 -14 -9 -27.5t-30 -15.5v-4q12 -1 18 -7t11 -17q7 -14 14 -22.5t18 -8.5q3 0 9 2l3 -3zM190 557q20 0 28 9.5t8 23.5
q0 11 -6 20t-20 9q-19 0 -19 -17v-45h9zM335 550q0 28 -10 52.5t-27.5 42.5t-42 28t-52.5 10q-29 0 -52.5 -10t-40.5 -27.5t-26.5 -42t-9.5 -53.5q0 -27 10 -50.5t27 -41.5t41 -28t51 -10q60 0 96 37t36 93z" />
    <glyph glyph-name="macron" unicode="&#xaf;" horiz-adv-x="513" 
d="M55 571v83h403v-83h-403z" />
    <glyph glyph-name="degree" unicode="&#xb0;" horiz-adv-x="378" 
d="M189 362q-28 0 -52.5 10.5t-42.5 28.5t-28.5 42.5t-10.5 52.5t10.5 52.5t28.5 42.5t42.5 28.5t52.5 10.5t52.5 -10.5t42.5 -28.5t28.5 -42.5t10.5 -52.5t-10.5 -52.5t-28.5 -42.5t-42.5 -28.5t-52.5 -10.5zM189 407q38 0 63 26t25 63q0 38 -25 63t-63 25q-37 0 -63 -25
t-26 -63q0 -37 26 -63t63 -26z" />
    <glyph glyph-name="plusminus" unicode="&#xb1;" horiz-adv-x="637" 
d="M55 0v79h527v-79h-527zM278 126v224h-223v79h223v224h81v-224h223v-79h-223v-224h-81z" />
    <glyph glyph-name="uni00B2" unicode="&#xb2;" horiz-adv-x="420" 
d="M40 447v42q45 25 85.5 48.5t66.5 54.5q48 57 48 131q0 51 -21 73.5t-51 22.5q-21 0 -41 -10l-4 -5l-12 -67l-4 -3q-20 0 -37 11t-17 35q0 19 12 32.5t30.5 22t40.5 12t43 3.5q46 0 77 -10.5t50 -28t26.5 -40.5t7.5 -49q0 -44 -22 -76t-51 -56t-59 -40.5t-46 -28.5v-7h122
q12 0 22.5 1.5t19.5 7.5t17 17t16 30h13l3 -5l-14 -118h-321z" />
    <glyph glyph-name="uni00B3" unicode="&#xb3;" horiz-adv-x="393" 
d="M114 492q24 -11 44 -11q25 0 42.5 7t28.5 18t16.5 25t5.5 28q0 38 -25 63.5t-82 25.5q-7 0 -15 -1t-16 -3l-2 33q35 4 58.5 11.5t37 18t19 23.5t5.5 30q0 31 -15.5 47.5t-50.5 16.5q-9 0 -19 -2t-20 -7l-4 -5l-12 -66l-5 -4q-7 0 -16 3t-17.5 8.5t-14 14t-5.5 20.5
q0 19 12 32.5t30 21.5t40 11.5t43 3.5q44 0 74 -7t48 -19.5t26 -29.5t8 -37q0 -11 -4.5 -24.5t-17 -25.5t-36 -21t-60.5 -10v-4q42 -2 69 -12.5t42.5 -25.5t21 -33t5.5 -35q0 -23 -11 -45t-34 -39.5t-59.5 -28.5t-87.5 -11q-22 0 -43.5 3.5t-39 11.5t-28 21t-10.5 33
q0 12 5.5 20.5t14 14t17.5 8.5t17 3l4 -4l12 -61z" />
    <glyph glyph-name="acute" unicode="&#xb4;" horiz-adv-x="319" 
d="M64 559l-15 17l126 231q31 0 54 -17q22 -15 35 -46l-180 -194z" />
    <glyph glyph-name="mu" unicode="&#xb5;" horiz-adv-x="655" 
d="M435 -12l-8 7v88h-4q-25 -46 -65 -70.5t-99 -24.5q-37 0 -64 10l34 -275l-115 -17h-18v769l112 25h16v-321q0 -51 20.5 -83.5t73.5 -32.5q6 0 19 2t28.5 9.5t32 22t29.5 38.5v340l111 25h17v-410l84 -17v-27z" />
    <glyph glyph-name="mu" unicode="&#x3bc;" horiz-adv-x="655" 
d="M435 -12l-8 7v88h-4q-25 -46 -65 -70.5t-99 -24.5q-37 0 -64 10l34 -275l-115 -17h-18v769l112 25h16v-321q0 -51 20.5 -83.5t73.5 -32.5q6 0 19 2t28.5 9.5t32 22t29.5 38.5v340l111 25h17v-410l84 -17v-27z" />
    <glyph glyph-name="paragraph" unicode="&#xb6;" horiz-adv-x="663" 
d="M377 196q-57 0 -107.5 22t-88 59.5t-59.5 88t-22 107.5t22 107.5t59.5 88t88 59.5t107.5 22h86v-554h-86zM512 750h51v-883q0 -45 -15.5 -75.5t-38 -49.5t-49.5 -27t-49 -8q-28 0 -53 7t-44 20t-30 32.5t-11 45.5q0 18 7.5 31t19 22t26 13t28.5 4l7 -6l28 -129l7 -5
q36 0 58.5 11t35.5 28.5t17.5 39.5t4.5 45v884z" />
    <glyph glyph-name="periodcentered" unicode="&#xb7;" horiz-adv-x="274" 
d="M137 179q-33 0 -57.5 23.5t-24.5 58.5q0 34 24.5 58t57.5 24q34 0 58 -24t24 -58q0 -35 -24 -58.5t-58 -23.5z" />
    <glyph glyph-name="cedilla" unicode="&#xb8;" horiz-adv-x="335" 
d="M204 -7q-26 -20 -26 -60q0 -21 16 -34t35 -27.5t35 -34t16 -52.5q0 -35 -32 -60.5t-84 -25.5q-54 0 -81.5 18.5t-27.5 45.5q0 13 6 22t14 14t17 7.5t15 2.5q0 -44 18.5 -62.5t47.5 -18.5q20 0 31.5 8.5t11.5 22.5q0 12 -15.5 23.5t-33.5 27.5t-33.5 38.5t-15.5 55.5
q0 29 10.5 49t24 32.5t26 18.5t15.5 7z" />
    <glyph glyph-name="uni00B9" unicode="&#xb9;" horiz-adv-x="344" 
d="M45 450v33q25 0 40 2.5t23.5 7.5t11.5 12.5t3 17.5v232q0 20 -13.5 30t-58.5 10v33l158 22h9v-327q0 -10 3 -17.5t11 -12.5t23.5 -7.5t41.5 -2.5l2 -5l-2 -28h-252z" />
    <glyph glyph-name="ordmasculine" unicode="&#xba;" horiz-adv-x="415" 
d="M207 430q29 0 48 32.5t19 89.5t-19 90t-48 33t-47.5 -33t-18.5 -90t18.5 -89.5t47.5 -32.5zM365 552q0 -32 -10 -59.5t-30 -48t-49.5 -32.5t-68.5 -12t-68 12t-49 32.5t-30 48t-10 59.5t10 60t30 48.5t49 32.5t68 12t68.5 -12t49.5 -32.5t30 -48.5t10 -60zM50 304v44h315
v-44h-315z" />
    <glyph glyph-name="guillemotright" unicode="&#xbb;" horiz-adv-x="587" 
d="M265 36l-3 13l163 213l-163 204l3 14l40 41l227 -254v-11l-218 -254zM63 36l-3 13l163 213l-163 204l3 14l40 41l227 -254v-11l-218 -254z" />
    <glyph glyph-name="onequarter" unicode="&#xbc;" horiz-adv-x="731" 
d="M143 0l421 750h60l-421 -750h-60zM449 0v32q42 0 55 10.5t13 30.5v36h-171v22l187 269h76v-235h77l-8 -56h-69v-36q0 -20 13 -30.5t57 -10.5l2 -5l-2 -27h-230zM517 325l-111 -160h111v160zM45 350v33q25 0 40 2.5t23.5 7.5t11.5 12.5t3 17.5v232q0 20 -13.5 30t-58.5 10
v33l158 22h9v-327q0 -10 3 -17.5t11 -12.5t23.5 -7.5t41.5 -2.5l2 -5l-2 -28h-252z" />
    <glyph glyph-name="onehalf" unicode="&#xbd;" horiz-adv-x="813" 
d="M145 0l421 750h60l-421 -750h-60zM45 350v33q25 0 40 2.5t23.5 7.5t11.5 12.5t3 17.5v232q0 20 -13.5 30t-58.5 10v33l158 22h9v-327q0 -10 3 -17.5t11 -12.5t23.5 -7.5t41.5 -2.5l2 -5l-2 -28h-252zM433 0v42q45 25 85.5 48.5t66.5 54.5q48 57 48 131q0 51 -21 73.5
t-51 22.5q-21 0 -41 -10l-4 -5l-12 -67l-4 -3q-20 0 -37 11t-17 35q0 19 12 32.5t30.5 22t40.5 12t43 3.5q46 0 77 -10.5t50 -28t26.5 -40.5t7.5 -49q0 -44 -21.5 -76t-51 -56t-59.5 -40.5t-46 -28.5v-7h122q12 0 22.5 1.5t19.5 7.5t17 17t16 30h13l3 -5l-14 -118h-321z" />
    <glyph glyph-name="threequarters" unicode="&#xbe;" horiz-adv-x="750" 
d="M162 0l421 750h60l-421 -750h-60zM468 0v32q42 0 55 10.5t13 30.5v36h-171v22l187 269h76v-235h77l-8 -56h-69v-36q0 -20 13 -30.5t57 -10.5l2 -5l-2 -27h-230zM536 325l-111 -160h111v160zM114 392q24 -11 44 -11q25 0 42.5 7t28.5 18t16.5 25t5.5 28q0 38 -25 63.5
t-82 25.5q-7 0 -15 -1t-16 -3l-2 33q35 4 58.5 11.5t37 18t19 23.5t5.5 30q0 31 -15.5 47.5t-50.5 16.5q-9 0 -19 -2t-20 -7l-4 -5l-12 -66l-5 -4q-7 0 -16 3t-17.5 8.5t-14 14t-5.5 20.5q0 19 12 32.5t30 21.5t40 11.5t43 3.5q44 0 74 -7t48 -19.5t26 -29.5t8 -37
q0 -11 -4.5 -24.5t-17 -25.5t-36 -21t-60.5 -10v-4q42 -2 69 -12.5t42.5 -25.5t21 -33t5.5 -35q0 -23 -11 -45t-34 -39.5t-59.5 -28.5t-87.5 -11q-22 0 -43.5 3.5t-39 11.5t-28 21t-10.5 33q0 12 5.5 20.5t14 14t17.5 8.5t17 3l4 -4l12 -61z" />
    <glyph glyph-name="questiondown" unicode="&#xbf;" horiz-adv-x="487" 
d="M344 -122l7 6q14 0 28.5 -4t26 -13t19 -22t7.5 -31q0 -33 -17.5 -54t-44.5 -33t-60 -16.5t-63 -4.5q-39 0 -73.5 8.5t-61 27.5t-42 49t-15.5 73q0 45 21 79t53 61.5t68.5 50.5t68.5 46.5t53 49t21 57.5q0 31 -17 46.5t-37 15.5q-40 0 -57.5 -23t-17.5 -52l-10 -7
q-16 7 -25.5 22t-9.5 35q0 14 7.5 28t20.5 25t31.5 18t39.5 7q14 0 34.5 -4t40 -17t33 -36t13.5 -61q0 -40 -15 -72.5t-37.5 -61t-49 -54t-49 -51.5t-37.5 -53t-15 -59q0 -35 9 -56.5t22.5 -33.5t28.5 -16t26 -4q20 0 40 6l7 5zM276 390q-33 0 -57.5 23.5t-24.5 58.5
q0 34 24.5 58t57.5 24q34 0 58 -24t24 -58q0 -35 -24 -58.5t-58 -23.5z" />
    <glyph glyph-name="Agrave" unicode="&#xc0;" horiz-adv-x="764" 
d="M434 0v31l62 18q16 5 22 11.5t6 14.5q0 6 -2.5 15.5t-5.5 18.5l-56 168h-234l-61 -171q-2 -6 -4.5 -15t-2.5 -14q0 -11 4.5 -18.5t17.5 -10.5l69 -17v-31h-239v30l37 14q25 10 34.5 25.5t16.5 32.5l224 598l122 11l6 -5l210 -602q5 -16 16.5 -32.5t38.5 -25.5l39 -13v-33
h-320zM346 622l-106 -300h205zM434 752l-216 135q2 15 7 28.5t15 24.5q8 11 20.5 19t26.5 12l174 -185l-10 -20z" />
    <glyph glyph-name="Aacute" unicode="&#xc1;" horiz-adv-x="764" 
d="M434 0v31l62 18q16 5 22 11.5t6 14.5q0 6 -2.5 15.5t-5.5 18.5l-56 168h-234l-61 -171q-2 -6 -4.5 -15t-2.5 -14q0 -11 4.5 -18.5t17.5 -10.5l69 -17v-31h-239v30l37 14q25 10 34.5 25.5t16.5 32.5l224 598l122 11l6 -5l210 -602q5 -16 16.5 -32.5t38.5 -25.5l39 -13v-33
h-320zM346 622l-106 -300h205zM338 752l-17 14l-10 20l174 185q14 -4 26.5 -12t20.5 -19q10 -11 15 -24.5t7 -28.5z" />
    <glyph glyph-name="Acircumflex" unicode="&#xc2;" horiz-adv-x="764" 
d="M434 0v31l62 18q16 5 22 11.5t6 14.5q0 6 -2.5 15.5t-5.5 18.5l-56 168h-234l-61 -171q-2 -6 -4.5 -15t-2.5 -14q0 -11 4.5 -18.5t17.5 -10.5l69 -17v-31h-239v30l37 14q25 10 34.5 25.5t16.5 32.5l224 598l122 11l6 -5l210 -602q5 -16 16.5 -32.5t38.5 -25.5l39 -13v-33
h-320zM346 622l-106 -300h205zM502 751l-121 118l-120 -118l-20 9l-15 17l126 191q17 5 30 5q8 0 14.5 -1.5t14.5 -3.5l126 -191l-15 -17z" />
    <glyph glyph-name="Atilde" unicode="&#xc3;" horiz-adv-x="764" 
d="M434 0v31l62 18q16 5 22 11.5t6 14.5q0 6 -2.5 15.5t-5.5 18.5l-56 168h-234l-61 -171q-2 -6 -4.5 -15t-2.5 -14q0 -11 4.5 -18.5t17.5 -10.5l69 -17v-31h-239v30l37 14q25 10 34.5 25.5t16.5 32.5l224 598l122 11l6 -5l210 -602q5 -16 16.5 -32.5t38.5 -25.5l39 -13v-33
h-320zM346 622l-106 -300h205zM583 876q-8 -18 -19.5 -36t-25 -33t-29 -26t-33.5 -15q-23 0 -47 7t-48 15t-47 15t-45 7q-25 0 -45.5 -12t-40.5 -32l-23 19q8 18 19.5 35.5t25 32.5t29 25.5t33.5 14.5q22 0 46.5 -7t48.5 -15t47.5 -15t44.5 -7q25 0 46 13t41 33z" />
    <glyph glyph-name="Adieresis" unicode="&#xc4;" horiz-adv-x="764" 
d="M434 0v31l62 18q16 5 22 11.5t6 14.5q0 6 -2.5 15.5t-5.5 18.5l-56 168h-234l-61 -171q-2 -6 -4.5 -15t-2.5 -14q0 -11 4.5 -18.5t17.5 -10.5l69 -17v-31h-239v30l37 14q25 10 34.5 25.5t16.5 32.5l224 598l122 11l6 -5l210 -602q5 -16 16.5 -32.5t38.5 -25.5l39 -13v-33
h-320zM346 622l-106 -300h205zM281 756q-30 0 -52 21.5t-22 52.5q0 30 22 52t52 22t52 -22t22 -52q0 -31 -22 -52.5t-52 -21.5zM483 756q-30 0 -52 21.5t-22 52.5q0 30 22 52t52 22t52 -22t22 -52q0 -31 -22 -52.5t-52 -21.5z" />
    <glyph glyph-name="Aring" unicode="&#xc5;" horiz-adv-x="764" 
d="M458 817q0 32 -22.5 54.5t-54.5 22.5t-54.5 -22.5t-22.5 -54.5q0 -33 22.5 -55t54.5 -22t54.5 22t22.5 55zM346 622l-106 -300h205zM434 0v31l62 18q16 5 22 11.5t6 14.5q0 6 -2.5 15.5t-5.5 18.5l-56 168h-234l-61 -171q-2 -6 -4.5 -15t-2.5 -14q0 -11 4.5 -18.5
t17.5 -10.5l69 -17v-31h-239v30l37 14q25 10 34.5 25.5t16.5 32.5l223 597q-32 16 -52 47.5t-20 70.5q0 27 10.5 51t28.5 42t42 28.5t51 10.5t51 -10.5t42 -28.5t28.5 -42t10.5 -51q0 -36 -17 -66t-46 -47l210 -600q5 -16 16.5 -32.5t38.5 -25.5l39 -13v-33h-320z" />
    <glyph glyph-name="AE" unicode="&#xc6;" horiz-adv-x="946" 
d="M315 0v42q51 0 70 18t19 53v166h-159l-80 -173q-5 -11 -7 -19t-2 -16q0 -9 5 -15t13 -8l75 -17v-31h-239v30l32 14q23 10 36 25t21 33l257 551q-18 5 -41 5v42h553l13 -9l-35 -153l-8 -5h-21q-7 66 -40.5 95.5t-96.5 29.5h-56q-50 0 -68 -18.5t-18 -52.5v-212h132
q37 0 55.5 21t18.5 84h42v-241l-34 -4l-8 4q0 53 -18.5 72t-55.5 19h-132v-217q0 -34 16.5 -52.5t59.5 -18.5h97q17 0 41 5t49.5 18.5t50.5 38t44 64.5l20 -7l4 -9l-40 -152h-565zM404 587q0 16 -5 31l-139 -296h144v265z" />
    <glyph glyph-name="Ccedilla" unicode="&#xc7;" horiz-adv-x="670" 
d="M621 20q-16 -8 -41.5 -14t-54 -11t-57 -7.5t-50.5 -2.5h-10q-20 -20 -20 -55q0 -21 16 -34t35 -27.5t35 -34t16 -52.5q0 -35 -32 -60.5t-84 -25.5q-54 0 -81.5 18.5t-27.5 45.5q0 13 6 22t14 14t17 7.5t15 2.5q0 -44 18.5 -62.5t47.5 -18.5q20 0 31.5 8.5t11.5 22.5
q0 12 -15.5 23.5t-33.5 27.5t-33.5 38.5t-15.5 55.5q0 32 12.5 53t27.5 33q-75 6 -138.5 32t-110 71t-72.5 110t-26 149q0 91 30.5 160t83.5 114.5t125 68.5t155 23q16 0 38 -2t44 -5t41.5 -5t32.5 -2q21 0 34 4t20 9l13 -9l-35 -159l-7 -5h-21q-4 32 -20 55.5t-39 39
t-49.5 23t-51.5 7.5q-59 0 -105 -22.5t-77.5 -63.5t-47.5 -99.5t-16 -131.5q0 -72 16.5 -130t48 -98.5t77.5 -62.5t105 -22q16 0 42.5 3t56.5 15.5t59 37.5t51 69l25 -7l4 -9z" />
    <glyph glyph-name="Egrave" unicode="&#xc8;" horiz-adv-x="662" 
d="M31 0v42q51 0 70 18t19 53v474q0 35 -19 53t-70 18v42h553l13 -9l-35 -153l-8 -5h-21q-7 66 -40.5 95.5t-96.5 29.5h-56q-50 0 -68 -18.5t-18 -52.5v-212h132q37 0 55.5 21t18.5 84h42v-241l-34 -4l-8 4q0 53 -18.5 72t-55.5 19h-132v-217q0 -34 16.5 -52.5t59.5 -18.5
h97q17 0 41 5t49.5 18.5t50.5 38t44 64.5l20 -7l4 -9l-40 -152h-565zM425 752l-216 135q2 15 7 28.5t15 24.5q8 11 20.5 19t26.5 12l174 -185l-10 -20z" />
    <glyph glyph-name="Eacute" unicode="&#xc9;" horiz-adv-x="662" 
d="M31 0v42q51 0 70 18t19 53v474q0 35 -19 53t-70 18v42h553l13 -9l-35 -153l-8 -5h-21q-7 66 -40.5 95.5t-96.5 29.5h-56q-50 0 -68 -18.5t-18 -52.5v-212h132q37 0 55.5 21t18.5 84h42v-241l-34 -4l-8 4q0 53 -18.5 72t-55.5 19h-132v-217q0 -34 16.5 -52.5t59.5 -18.5
h97q17 0 41 5t49.5 18.5t50.5 38t44 64.5l20 -7l4 -9l-40 -152h-565zM270 752l-17 14l-10 20l174 185q14 -4 26.5 -12t20.5 -19q10 -11 15 -24.5t7 -28.5z" />
    <glyph glyph-name="Ecircumflex" unicode="&#xca;" horiz-adv-x="662" 
d="M31 0v42q51 0 70 18t19 53v474q0 35 -19 53t-70 18v42h553l13 -9l-35 -153l-8 -5h-21q-7 66 -40.5 95.5t-96.5 29.5h-56q-50 0 -68 -18.5t-18 -52.5v-212h132q37 0 55.5 21t18.5 84h42v-241l-34 -4l-8 4q0 53 -18.5 72t-55.5 19h-132v-217q0 -34 16.5 -52.5t59.5 -18.5
h97q17 0 41 5t49.5 18.5t50.5 38t44 64.5l20 -7l4 -9l-40 -152h-565zM468 751l-121 118l-120 -118l-20 9l-15 17l126 191q17 5 30 5q8 0 14.5 -1.5t14.5 -3.5l126 -191l-15 -17z" />
    <glyph glyph-name="Edieresis" unicode="&#xcb;" horiz-adv-x="662" 
d="M31 0v42q51 0 70 18t19 53v474q0 35 -19 53t-70 18v42h553l13 -9l-35 -153l-8 -5h-21q-7 66 -40.5 95.5t-96.5 29.5h-56q-50 0 -68 -18.5t-18 -52.5v-212h132q37 0 55.5 21t18.5 84h42v-241l-34 -4l-8 4q0 53 -18.5 72t-55.5 19h-132v-217q0 -34 16.5 -52.5t59.5 -18.5
h97q17 0 41 5t49.5 18.5t50.5 38t44 64.5l20 -7l4 -9l-40 -152h-565zM255 756q-30 0 -52 21.5t-22 52.5q0 30 22 52t52 22t52 -22t22 -52q0 -31 -22 -52.5t-52 -21.5zM457 756q-30 0 -52 21.5t-22 52.5q0 30 22 52t52 22t52 -22t22 -52q0 -31 -22 -52.5t-52 -21.5z" />
    <glyph glyph-name="Igrave" unicode="&#xcc;" horiz-adv-x="380" 
d="M31 0v42q51 0 70 18t19 53v474q0 35 -19 53t-70 18v42h314l4 -34l-4 -8q-54 0 -72.5 -18t-18.5 -53v-474q0 -35 18.5 -53t72.5 -18l4 -8l-4 -34h-314zM284 752l-216 135q2 15 7 28.5t15 24.5q8 11 20.5 19t26.5 12l174 -185l-10 -20z" />
    <glyph glyph-name="Iacute" unicode="&#xcd;" horiz-adv-x="380" 
d="M31 0v42q51 0 70 18t19 53v474q0 35 -19 53t-70 18v42h314l4 -34l-4 -8q-54 0 -72.5 -18t-18.5 -53v-474q0 -35 18.5 -53t72.5 -18l4 -8l-4 -34h-314zM95 752l-17 14l-10 20l174 185q14 -4 26.5 -12t20.5 -19q10 -11 15 -24.5t7 -28.5z" />
    <glyph glyph-name="Icircumflex" unicode="&#xce;" horiz-adv-x="380" 
d="M31 0v42q51 0 70 18t19 53v474q0 35 -19 53t-70 18v42h314l4 -34l-4 -8q-54 0 -72.5 -18t-18.5 -53v-474q0 -35 18.5 -53t72.5 -18l4 -8l-4 -34h-314zM313 751l-121 118l-120 -118l-20 9l-15 17l126 191q17 5 30 5q8 0 14.5 -1.5t14.5 -3.5l126 -191l-15 -17z" />
    <glyph glyph-name="Idieresis" unicode="&#xcf;" horiz-adv-x="380" 
d="M31 0v42q51 0 70 18t19 53v474q0 35 -19 53t-70 18v42h314l4 -34l-4 -8q-54 0 -72.5 -18t-18.5 -53v-474q0 -35 18.5 -53t72.5 -18l4 -8l-4 -34h-314zM91 756q-30 0 -52 21.5t-22 52.5q0 30 22 52t52 22t52 -22t22 -52q0 -31 -22 -52.5t-52 -21.5zM293 756
q-30 0 -52 21.5t-22 52.5q0 30 22 52t52 22t52 -22t22 -52q0 -31 -22 -52.5t-52 -21.5z" />
    <glyph glyph-name="Eth" unicode="&#xd0;" horiz-adv-x="803" 
d="M30 42q51 0 70 18t19 53v213h-98l10 48h88v213q0 35 -19 53t-70 18v42q48 0 96.5 1t94 1.5t86 1.5t72.5 1q82 0 154 -22.5t125 -67.5t83.5 -111.5t30.5 -154.5q0 -87 -30.5 -153.5t-83.5 -111t-125 -67t-155 -22.5q-31 0 -71.5 1t-86 1.5t-94 1.5t-96.5 1v42zM378 42
q59 0 105 22t77.5 62.5t48 97t16.5 125.5t-16 126t-47.5 97.5t-77.5 63t-105 22.5h-50q-45 -1 -60.5 -20t-15.5 -51v-213h102l-10 -48h-92v-213q0 -35 18 -53t68 -18h39z" />
    <glyph glyph-name="Ntilde" unicode="&#xd1;" horiz-adv-x="833" 
d="M659 0l-479 579v-466q0 -17 4.5 -30.5t16.5 -22.5t33.5 -13.5t55.5 -4.5l4 -8l-4 -34h-259v42q51 0 70 18t19 53v478q0 31 -19 49t-70 18v42h225l395 -488v375q0 17 -4.5 30.5t-16.5 22.5t-33 13.5t-53 4.5v42h259l4 -34l-4 -8q-54 0 -72.5 -18t-18.5 -53v-587h-53z
M622 866q-8 -18 -19.5 -36t-25 -33t-29 -26t-33.5 -15q-23 0 -47 7t-48 15t-47 15t-45 7q-25 0 -45.5 -12t-40.5 -32l-23 19q8 18 19.5 35.5t25 32.5t29 25.5t33.5 14.5q22 0 46.5 -7t48.5 -15t47.5 -15t44.5 -7q25 0 46 13t41 33z" />
    <glyph glyph-name="Ograve" unicode="&#xd2;" horiz-adv-x="766" 
d="M383 -15q-80 0 -146.5 26t-114.5 73.5t-74.5 114.5t-26.5 149q0 83 26.5 150.5t74.5 115.5t114.5 74.5t146.5 26.5t146.5 -26.5t114.5 -74.5t74.5 -115.5t26.5 -150.5q0 -82 -26.5 -149t-74.5 -114.5t-114.5 -73.5t-146.5 -26zM383 33q52 0 92 24t67 66.5t40.5 100
t13.5 125.5q0 67 -13.5 125t-40.5 101t-67 67.5t-92 24.5q-53 0 -92.5 -24.5t-66 -67.5t-40 -101.5t-13.5 -125.5t13.5 -124.5t40 -100t66 -66.5t92.5 -24zM477 752l-216 135q2 15 7 28.5t15 24.5q8 11 20.5 19t26.5 12l174 -185l-10 -20z" />
    <glyph glyph-name="Oacute" unicode="&#xd3;" horiz-adv-x="766" 
d="M383 -15q-80 0 -146.5 26t-114.5 73.5t-74.5 114.5t-26.5 149q0 83 26.5 150.5t74.5 115.5t114.5 74.5t146.5 26.5t146.5 -26.5t114.5 -74.5t74.5 -115.5t26.5 -150.5q0 -82 -26.5 -149t-74.5 -114.5t-114.5 -73.5t-146.5 -26zM383 33q52 0 92 24t67 66.5t40.5 100
t13.5 125.5q0 67 -13.5 125t-40.5 101t-67 67.5t-92 24.5q-53 0 -92.5 -24.5t-66 -67.5t-40 -101.5t-13.5 -125.5t13.5 -124.5t40 -100t66 -66.5t92.5 -24zM339 752l-17 14l-10 20l174 185q14 -4 26.5 -12t20.5 -19q10 -11 15 -24.5t7 -28.5z" />
    <glyph glyph-name="Ocircumflex" unicode="&#xd4;" horiz-adv-x="766" 
d="M383 -15q-80 0 -146.5 26t-114.5 73.5t-74.5 114.5t-26.5 149q0 83 26.5 150.5t74.5 115.5t114.5 74.5t146.5 26.5t146.5 -26.5t114.5 -74.5t74.5 -115.5t26.5 -150.5q0 -82 -26.5 -149t-74.5 -114.5t-114.5 -73.5t-146.5 -26zM383 33q52 0 92 24t67 66.5t40.5 100
t13.5 125.5q0 67 -13.5 125t-40.5 101t-67 67.5t-92 24.5q-53 0 -92.5 -24.5t-66 -67.5t-40 -101.5t-13.5 -125.5t13.5 -124.5t40 -100t66 -66.5t92.5 -24zM503 751l-121 118l-120 -118l-20 9l-15 17l126 191q17 5 30 5q8 0 14.5 -1.5t14.5 -3.5l126 -191l-15 -17z" />
    <glyph glyph-name="Otilde" unicode="&#xd5;" horiz-adv-x="766" 
d="M383 -15q-80 0 -146.5 26t-114.5 73.5t-74.5 114.5t-26.5 149q0 83 26.5 150.5t74.5 115.5t114.5 74.5t146.5 26.5t146.5 -26.5t114.5 -74.5t74.5 -115.5t26.5 -150.5q0 -82 -26.5 -149t-74.5 -114.5t-114.5 -73.5t-146.5 -26zM383 33q52 0 92 24t67 66.5t40.5 100
t13.5 125.5q0 67 -13.5 125t-40.5 101t-67 67.5t-92 24.5q-53 0 -92.5 -24.5t-66 -67.5t-40 -101.5t-13.5 -125.5t13.5 -124.5t40 -100t66 -66.5t92.5 -24zM584 876q-8 -18 -19.5 -36t-25 -33t-29 -26t-33.5 -15q-23 0 -47 7t-48 15t-47 15t-45 7q-25 0 -45.5 -12t-40.5 -32
l-23 19q8 18 19.5 35.5t25 32.5t29 25.5t33.5 14.5q22 0 46.5 -7t48.5 -15t47.5 -15t44.5 -7q25 0 46 13t41 33z" />
    <glyph glyph-name="Odieresis" unicode="&#xd6;" horiz-adv-x="766" 
d="M383 -15q-80 0 -146.5 26t-114.5 73.5t-74.5 114.5t-26.5 149q0 83 26.5 150.5t74.5 115.5t114.5 74.5t146.5 26.5t146.5 -26.5t114.5 -74.5t74.5 -115.5t26.5 -150.5q0 -82 -26.5 -149t-74.5 -114.5t-114.5 -73.5t-146.5 -26zM383 33q52 0 92 24t67 66.5t40.5 100
t13.5 125.5q0 67 -13.5 125t-40.5 101t-67 67.5t-92 24.5q-53 0 -92.5 -24.5t-66 -67.5t-40 -101.5t-13.5 -125.5t13.5 -124.5t40 -100t66 -66.5t92.5 -24zM282 756q-30 0 -52 21.5t-22 52.5q0 30 22 52t52 22t52 -22t22 -52q0 -31 -22 -52.5t-52 -21.5zM484 756
q-30 0 -52 21.5t-22 52.5q0 30 22 52t52 22t52 -22t22 -52q0 -31 -22 -52.5t-52 -21.5z" />
    <glyph glyph-name="multiply" unicode="&#xd7;" horiz-adv-x="625" 
d="M312 204l-200 -200l-57 57l200 200l-200 201l57 57l200 -201l201 201l57 -57l-201 -201l201 -200l-57 -57z" />
    <glyph glyph-name="Oslash" unicode="&#xd8;" horiz-adv-x="766" 
d="M136 -19l36 63q-71 46 -111 123.5t-40 180.5q0 83 26.5 150.5t74.5 115.5t114.5 74.5t146.5 26.5q87 0 159 -32l38 66l43 -25l-37 -64q74 -47 116.5 -126.5t42.5 -185.5q0 -82 -26.5 -149t-74.5 -114.5t-114.5 -73.5t-146.5 -26q-47 0 -88.5 9t-78.5 26l-37 -64zM254 86
q51 -53 129 -53q52 0 92 24t67 66.5t40.5 100t13.5 125.5q0 69 -14 127.5t-43 102.5zM505 619q-24 23 -54.5 35.5t-67.5 12.5q-53 0 -92.5 -24.5t-66 -67.5t-40 -101.5t-13.5 -125.5q0 -66 12.5 -122t37.5 -98z" />
    <glyph glyph-name="Ugrave" unicode="&#xd9;" horiz-adv-x="821" 
d="M639 587q0 35 -20 53t-71 18v42h241l4 -34l-4 -8q-54 0 -72.5 -18t-18.5 -53v-309q0 -92 -26.5 -149.5t-65.5 -89.5t-84 -43t-81 -11q-63 0 -121.5 11.5t-103.5 43t-72 88t-27 146.5v313q0 35 -19 53t-70 18v42h326l4 -34l-4 -8q-31 0 -50.5 -4.5t-31 -13.5t-15.5 -22.5
t-4 -30.5v-318q0 -70 14 -113.5t39.5 -68t60 -33t75.5 -8.5t77 11t62.5 37t42 68.5t15.5 106.5v318zM538 752l-216 135q2 15 7 28.5t15 24.5q8 11 20.5 19t26.5 12l174 -185l-10 -20z" />
    <glyph glyph-name="Uacute" unicode="&#xda;" horiz-adv-x="821" 
d="M639 587q0 35 -20 53t-71 18v42h241l4 -34l-4 -8q-54 0 -72.5 -18t-18.5 -53v-309q0 -92 -26.5 -149.5t-65.5 -89.5t-84 -43t-81 -11q-63 0 -121.5 11.5t-103.5 43t-72 88t-27 146.5v313q0 35 -19 53t-70 18v42h326l4 -34l-4 -8q-31 0 -50.5 -4.5t-31 -13.5t-15.5 -22.5
t-4 -30.5v-318q0 -70 14 -113.5t39.5 -68t60 -33t75.5 -8.5t77 11t62.5 37t42 68.5t15.5 106.5v318zM383 752l-17 14l-10 20l174 185q14 -4 26.5 -12t20.5 -19q10 -11 15 -24.5t7 -28.5z" />
    <glyph glyph-name="Ucircumflex" unicode="&#xdb;" horiz-adv-x="821" 
d="M639 587q0 35 -20 53t-71 18v42h241l4 -34l-4 -8q-54 0 -72.5 -18t-18.5 -53v-309q0 -92 -26.5 -149.5t-65.5 -89.5t-84 -43t-81 -11q-63 0 -121.5 11.5t-103.5 43t-72 88t-27 146.5v313q0 35 -19 53t-70 18v42h326l4 -34l-4 -8q-31 0 -50.5 -4.5t-31 -13.5t-15.5 -22.5
t-4 -30.5v-318q0 -70 14 -113.5t39.5 -68t60 -33t75.5 -8.5t77 11t62.5 37t42 68.5t15.5 106.5v318zM560 751l-121 118l-120 -118l-20 9l-15 17l126 191q17 5 30 5q8 0 14.5 -1.5t14.5 -3.5l126 -191l-15 -17z" />
    <glyph glyph-name="Udieresis" unicode="&#xdc;" horiz-adv-x="821" 
d="M639 587q0 35 -20 53t-71 18v42h241l4 -34l-4 -8q-54 0 -72.5 -18t-18.5 -53v-309q0 -92 -26.5 -149.5t-65.5 -89.5t-84 -43t-81 -11q-63 0 -121.5 11.5t-103.5 43t-72 88t-27 146.5v313q0 35 -19 53t-70 18v42h326l4 -34l-4 -8q-31 0 -50.5 -4.5t-31 -13.5t-15.5 -22.5
t-4 -30.5v-318q0 -70 14 -113.5t39.5 -68t60 -33t75.5 -8.5t77 11t62.5 37t42 68.5t15.5 106.5v318zM353 756q-30 0 -52 21.5t-22 52.5q0 30 22 52t52 22t52 -22t22 -52q0 -31 -22 -52.5t-52 -21.5zM555 756q-30 0 -52 21.5t-22 52.5q0 30 22 52t52 22t52 -22t22 -52
q0 -31 -22 -52.5t-52 -21.5z" />
    <glyph glyph-name="Yacute" unicode="&#xdd;" horiz-adv-x="689" 
d="M181 0v42q55 0 74.5 18t19.5 53v170l-174 313q-9 17 -22 34t-33 24l-39 13v33h325v-31l-62 -18q-32 -10 -32 -33q0 -6 2.5 -13t6.5 -14l137 -259l145 262q5 10 7 16.5t2 11.5q0 11 -5 18.5t-19 11.5l-67 17v31h235v-30l-37 -14q-19 -8 -29.5 -25.5t-21.5 -32.5l-185 -308
v-177q0 -17 4 -30.5t15 -22.5t29.5 -13.5t47.5 -4.5l4 -8l-4 -34h-324zM301 752l-17 14l-10 20l174 185q14 -4 26.5 -12t20.5 -19q10 -11 15 -24.5t7 -28.5z" />
    <glyph glyph-name="Thorn" unicode="&#xde;" horiz-adv-x="626" 
d="M27 0v42q51 0 70 18t19 53v474q0 35 -19 53t-70 18v42h314l4 -34l-4 -8q-54 0 -72.5 -18t-18.5 -53v-47q20 1 40 1.5t41 0.5q51 0 100.5 -6.5t89 -26.5t64 -56.5t24.5 -96.5q0 -61 -28.5 -99.5t-73.5 -60.5t-101 -30t-110 -8h-23.5t-22.5 1v-46q0 -35 18.5 -53t72.5 -18
l4 -8l-4 -34h-314zM250 208q40 0 78 4.5t68 19.5t48 44t18 78t-18 76.5t-47.5 41t-68 17t-78.5 3.5v-284z" />
    <glyph glyph-name="germandbls" unicode="&#xdf;" horiz-adv-x="726" 
d="M331 139l8 6l45 2q0 -29 10.5 -50.5t27 -36t36.5 -22t40 -7.5q12 0 26.5 4t27 13.5t20.5 25.5t8 40q0 28 -17 47t-43 35t-56 32t-56 37t-43 50.5t-17 72.5q0 34 9.5 60.5t23.5 47t31 37.5t31 33t23.5 32t9.5 35q0 29 -27 52.5t-87 23.5q-20 0 -43 -4t-43 -15.5
t-33.5 -33.5t-13.5 -58v-598h-212v42q48 0 66 18t18 53v328h-85v35l85 24v50q0 95 66.5 151.5t196.5 56.5q34 0 72.5 -6t71.5 -19.5t55 -37t22 -57.5q0 -29 -18 -49.5t-39.5 -43.5t-39.5 -53t-18 -79q0 -33 17.5 -53.5t44 -36t57 -29t57 -33t44 -48.5t17.5 -74
q0 -34 -15 -61.5t-41 -47.5t-60.5 -31t-72.5 -11q-28 0 -76 5t-105 33z" />
    <glyph glyph-name="agrave" unicode="&#xe0;" horiz-adv-x="502" 
d="M280 233q-14 0 -37 -4t-45 -15.5t-38 -31t-16 -49.5q0 -37 16.5 -52.5t41.5 -15.5q10 0 21.5 4t22.5 12t20 21.5t14 32.5v98zM489 23q-25 -19 -54.5 -27t-55.5 -8q-30 0 -49 9t-30 23.5t-15.5 31.5t-4.5 33h-4q-1 -6 -7.5 -22t-21.5 -32.5t-39 -29.5t-60 -13
q-60 0 -95 33.5t-35 94.5q0 52 30 81t72 43.5t86.5 18t73.5 3.5v108q0 45 -30 72.5t-90 27.5l-7 -5l-31 -123l-7 -6q-14 0 -28 4t-26 12.5t-19.5 21t-7.5 30.5q0 25 16.5 45t45 34t67.5 21.5t84 7.5q81 0 120 -37.5t39 -106.5v-242q0 -43 22.5 -60.5t61.5 -17.5l6 -6z
M265 550l-180 194q13 31 35 46q23 17 54 17l126 -231l-15 -17z" />
    <glyph glyph-name="aacute" unicode="&#xe1;" horiz-adv-x="502" 
d="M280 233q-14 0 -37 -4t-45 -15.5t-38 -31t-16 -49.5q0 -37 16.5 -52.5t41.5 -15.5q10 0 21.5 4t22.5 12t20 21.5t14 32.5v98zM489 23q-25 -19 -54.5 -27t-55.5 -8q-30 0 -49 9t-30 23.5t-15.5 31.5t-4.5 33h-4q-1 -6 -7.5 -22t-21.5 -32.5t-39 -29.5t-60 -13
q-60 0 -95 33.5t-35 94.5q0 52 30 81t72 43.5t86.5 18t73.5 3.5v108q0 45 -30 72.5t-90 27.5l-7 -5l-31 -123l-7 -6q-14 0 -28 4t-26 12.5t-19.5 21t-7.5 30.5q0 25 16.5 45t45 34t67.5 21.5t84 7.5q81 0 120 -37.5t39 -106.5v-242q0 -43 22.5 -60.5t61.5 -17.5l6 -6z
M184 559l-15 17l126 231q31 0 54 -17q22 -15 35 -46l-180 -194z" />
    <glyph glyph-name="acircumflex" unicode="&#xe2;" horiz-adv-x="502" 
d="M280 233q-14 0 -37 -4t-45 -15.5t-38 -31t-16 -49.5q0 -37 16.5 -52.5t41.5 -15.5q10 0 21.5 4t22.5 12t20 21.5t14 32.5v98zM489 23q-25 -19 -54.5 -27t-55.5 -8q-30 0 -49 9t-30 23.5t-15.5 31.5t-4.5 33h-4q-1 -6 -7.5 -22t-21.5 -32.5t-39 -29.5t-60 -13
q-60 0 -95 33.5t-35 94.5q0 52 30 81t72 43.5t86.5 18t73.5 3.5v108q0 45 -30 72.5t-90 27.5l-7 -5l-31 -123l-7 -6q-14 0 -28 4t-26 12.5t-19.5 21t-7.5 30.5q0 25 16.5 45t45 34t67.5 21.5t84 7.5q81 0 120 -37.5t39 -106.5v-242q0 -43 22.5 -60.5t61.5 -17.5l6 -6z
M348 551l-121 153l-120 -153l-20 9l-15 17l126 226q17 5 30 5q8 0 14.5 -1.5t14.5 -3.5l126 -226l-15 -17z" />
    <glyph glyph-name="atilde" unicode="&#xe3;" horiz-adv-x="502" 
d="M280 233q-14 0 -37 -4t-45 -15.5t-38 -31t-16 -49.5q0 -37 16.5 -52.5t41.5 -15.5q10 0 21.5 4t22.5 12t20 21.5t14 32.5v98zM489 23q-25 -19 -54.5 -27t-55.5 -8q-30 0 -49 9t-30 23.5t-15.5 31.5t-4.5 33h-4q-1 -6 -7.5 -22t-21.5 -32.5t-39 -29.5t-60 -13
q-60 0 -95 33.5t-35 94.5q0 52 30 81t72 43.5t86.5 18t73.5 3.5v108q0 45 -30 72.5t-90 27.5l-7 -5l-31 -123l-7 -6q-14 0 -28 4t-26 12.5t-19.5 21t-7.5 30.5q0 25 16.5 45t45 34t67.5 21.5t84 7.5q81 0 120 -37.5t39 -106.5v-242q0 -43 22.5 -60.5t61.5 -17.5l6 -6z
M439 666q-8 -18 -19.5 -36t-25 -33t-29 -26t-33.5 -15q-23 0 -47 7t-48 15t-47 15t-45 7q-25 0 -45.5 -12t-40.5 -32l-23 19q8 18 19.5 35.5t25 32.5t29 25.5t33.5 14.5q22 0 46.5 -7t48.5 -15t47.5 -15t44.5 -7q25 0 46 13t41 33z" />
    <glyph glyph-name="adieresis" unicode="&#xe4;" horiz-adv-x="502" 
d="M280 233q-14 0 -37 -4t-45 -15.5t-38 -31t-16 -49.5q0 -37 16.5 -52.5t41.5 -15.5q10 0 21.5 4t22.5 12t20 21.5t14 32.5v98zM489 23q-25 -19 -54.5 -27t-55.5 -8q-30 0 -49 9t-30 23.5t-15.5 31.5t-4.5 33h-4q-1 -6 -7.5 -22t-21.5 -32.5t-39 -29.5t-60 -13
q-60 0 -95 33.5t-35 94.5q0 52 30 81t72 43.5t86.5 18t73.5 3.5v108q0 45 -30 72.5t-90 27.5l-7 -5l-31 -123l-7 -6q-14 0 -28 4t-26 12.5t-19.5 21t-7.5 30.5q0 25 16.5 45t45 34t67.5 21.5t84 7.5q81 0 120 -37.5t39 -106.5v-242q0 -43 22.5 -60.5t61.5 -17.5l6 -6z
M124 556q-30 0 -52 21.5t-22 52.5q0 30 22 52t52 22t52 -22t22 -52q0 -31 -22 -52.5t-52 -21.5zM326 556q-30 0 -52 21.5t-22 52.5q0 30 22 52t52 22t52 -22t22 -52q0 -31 -22 -52.5t-52 -21.5z" />
    <glyph glyph-name="aring" unicode="&#xe5;" horiz-adv-x="502" 
d="M280 233q-14 0 -37 -4t-45 -15.5t-38 -31t-16 -49.5q0 -37 16.5 -52.5t41.5 -15.5q10 0 21.5 4t22.5 12t20 21.5t14 32.5v98zM489 23q-25 -19 -54.5 -27t-55.5 -8q-30 0 -49 9t-30 23.5t-15.5 31.5t-4.5 33h-4q-1 -6 -7.5 -22t-21.5 -32.5t-39 -29.5t-60 -13
q-60 0 -95 33.5t-35 94.5q0 52 30 81t72 43.5t86.5 18t73.5 3.5v108q0 45 -30 72.5t-90 27.5l-7 -5l-31 -123l-7 -6q-14 0 -28 4t-26 12.5t-19.5 21t-7.5 30.5q0 25 16.5 45t45 34t67.5 21.5t84 7.5q81 0 120 -37.5t39 -106.5v-242q0 -43 22.5 -60.5t61.5 -17.5l6 -6z
M213 551q-27 0 -51 10t-42 28t-28.5 42t-10.5 52q0 27 10.5 51t28.5 42t42 28.5t51 10.5t51 -10.5t42 -28.5t28.5 -42t10.5 -51q0 -28 -10.5 -52t-28.5 -42t-42 -28t-51 -10zM290 683q0 32 -22.5 54.5t-54.5 22.5t-54.5 -22.5t-22.5 -54.5q0 -33 22.5 -55t54.5 -22t54.5 22
t22.5 55z" />
    <glyph glyph-name="ae" unicode="&#xe6;" horiz-adv-x="743" 
d="M279 233q-14 0 -37 -4t-45 -15.5t-38 -31t-16 -49.5q0 -37 16.5 -52.5t41.5 -15.5q18 0 32.5 8.5t24.5 20.5t15.5 25.5t5.5 24.5v89zM609 366q0 56 -20 80.5t-65 24.5q-14 0 -30 -5.5t-31 -18.5t-27 -33t-18 -48h191zM728 119q-30 -63 -84 -97t-123 -34q-35 0 -68 8
t-62 24.5t-52 42t-37 61.5h-4q-3 -20 -12 -43.5t-26.5 -44t-45 -34.5t-67.5 -14q-60 0 -95 33.5t-35 94.5q0 52 30 81t72 43.5t86.5 18t73.5 3.5v108q0 45 -30 72.5t-90 27.5l-7 -5l-31 -123l-7 -6q-14 0 -28 4t-26 12.5t-19.5 21t-7.5 30.5q0 25 16.5 45t45 34t67.5 21.5
t84 7.5q92 0 131 -51q35 26 73 38.5t72 12.5q54 0 92.5 -14.5t63 -40t36.5 -60t12 -75.5h-316q-2 -14 -3 -26.5t-1 -29.5q0 -53 15 -88t37.5 -56t48.5 -29.5t49 -8.5q48 0 86.5 14.5t65.5 36.5l7 -1z" />
    <glyph glyph-name="ccedilla" unicode="&#xe7;" 
d="M464 119q-28 -57 -75.5 -90.5t-108.5 -39.5q-21 -20 -21 -56q0 -21 16 -34t35 -27.5t35 -34t16 -52.5q0 -35 -32 -60.5t-84 -25.5q-54 0 -81.5 18.5t-27.5 45.5q0 13 6 22t14 14t17 7.5t15 2.5q0 -44 18.5 -62.5t47.5 -18.5q20 0 31.5 8.5t11.5 22.5q0 12 -15.5 23.5
t-33.5 27.5t-33.5 38.5t-15.5 55.5q0 31 12 51.5t26 33.5q-44 3 -84.5 19t-71 46.5t-48.5 77.5t-18 111q0 72 24 123t60 83.5t78.5 47.5t80.5 15q50 0 86 -12t59.5 -30.5t34.5 -40.5t11 -43q0 -39 -21.5 -60.5t-59.5 -21.5l-9 6l-24 129l-2 3q-14 15 -30.5 22t-44.5 7
q-18 0 -38 -10.5t-37.5 -35t-29 -63.5t-11.5 -96q0 -53 15 -88t37.5 -56t48.5 -29.5t49 -8.5q48 0 86.5 14t65.5 37l7 -1z" />
    <glyph glyph-name="egrave" unicode="&#xe8;" 
d="M345 366q0 56 -20 80.5t-65 24.5q-14 0 -30 -5.5t-31 -18.5t-27 -33t-18 -48h191zM464 119q-30 -63 -84 -97t-123 -34q-47 0 -90.5 14.5t-77.5 45.5t-54 79t-20 116q0 72 24 123t60.5 83.5t79 47.5t79.5 15q54 0 92.5 -14.5t63 -40t36.5 -60t12 -75.5h-316
q-2 -14 -3 -26.5t-1 -29.5q0 -53 15 -88t37.5 -56t48.5 -29.5t49 -8.5q48 0 86.5 14.5t65.5 36.5l7 -1zM332 550l-180 194q13 31 35 46q23 17 54 17l126 -231l-15 -17z" />
    <glyph glyph-name="eacute" unicode="&#xe9;" 
d="M345 366q0 56 -20 80.5t-65 24.5q-14 0 -30 -5.5t-31 -18.5t-27 -33t-18 -48h191zM464 119q-30 -63 -84 -97t-123 -34q-47 0 -90.5 14.5t-77.5 45.5t-54 79t-20 116q0 72 24 123t60.5 83.5t79 47.5t79.5 15q54 0 92.5 -14.5t63 -40t36.5 -60t12 -75.5h-316
q-2 -14 -3 -26.5t-1 -29.5q0 -53 15 -88t37.5 -56t48.5 -29.5t49 -8.5q48 0 86.5 14.5t65.5 36.5l7 -1zM213 559l-15 17l126 231q31 0 54 -17q22 -15 35 -46l-180 -194z" />
    <glyph glyph-name="ecircumflex" unicode="&#xea;" 
d="M345 366q0 56 -20 80.5t-65 24.5q-14 0 -30 -5.5t-31 -18.5t-27 -33t-18 -48h191zM464 119q-30 -63 -84 -97t-123 -34q-47 0 -90.5 14.5t-77.5 45.5t-54 79t-20 116q0 72 24 123t60.5 83.5t79 47.5t79.5 15q54 0 92.5 -14.5t63 -40t36.5 -60t12 -75.5h-316
q-2 -14 -3 -26.5t-1 -29.5q0 -53 15 -88t37.5 -56t48.5 -29.5t49 -8.5q48 0 86.5 14.5t65.5 36.5l7 -1zM382 551l-121 153l-120 -153l-20 9l-15 17l126 226q17 5 30 5q8 0 14.5 -1.5t14.5 -3.5l126 -226l-15 -17z" />
    <glyph glyph-name="edieresis" unicode="&#xeb;" 
d="M345 366q0 56 -20 80.5t-65 24.5q-14 0 -30 -5.5t-31 -18.5t-27 -33t-18 -48h191zM464 119q-30 -63 -84 -97t-123 -34q-47 0 -90.5 14.5t-77.5 45.5t-54 79t-20 116q0 72 24 123t60.5 83.5t79 47.5t79.5 15q54 0 92.5 -14.5t63 -40t36.5 -60t12 -75.5h-316
q-2 -14 -3 -26.5t-1 -29.5q0 -53 15 -88t37.5 -56t48.5 -29.5t49 -8.5q48 0 86.5 14.5t65.5 36.5l7 -1zM164 556q-30 0 -52 21.5t-22 52.5q0 30 22 52t52 22t52 -22t22 -52q0 -31 -22 -52.5t-52 -21.5zM366 556q-30 0 -52 21.5t-22 52.5q0 30 22 52t52 22t52 -22t22 -52
q0 -31 -22 -52.5t-52 -21.5z" />
    <glyph glyph-name="igrave" unicode="&#xec;" horiz-adv-x="334" 
d="M16 0v39q48 0 66 18t18 55v291l-84 18v33l204 58l8 -7v-393q0 -37 18 -55t68 -18l4 -8l-4 -31h-298zM215 550l-180 194q13 31 35 46q23 17 54 17l126 -231l-15 -17z" />
    <glyph glyph-name="iacute" unicode="&#xed;" horiz-adv-x="334" 
d="M16 0v39q48 0 66 18t18 55v291l-84 18v33l204 58l8 -7v-393q0 -37 18 -55t68 -18l4 -8l-4 -31h-298zM96 559l-15 17l126 231q31 0 54 -17q22 -15 35 -46l-180 -194z" />
    <glyph glyph-name="icircumflex" unicode="&#xee;" horiz-adv-x="334" 
d="M16 0v39q48 0 66 18t18 55v291l-84 18v33l204 58l8 -7v-393q0 -37 18 -55t68 -18l4 -8l-4 -31h-298zM280 551l-121 153l-120 -153l-20 9l-15 17l126 226q17 5 30 5q8 0 14.5 -1.5t14.5 -3.5l126 -226l-15 -17z" />
    <glyph glyph-name="idieresis" unicode="&#xef;" horiz-adv-x="334" 
d="M16 0v39q48 0 66 18t18 55v291l-84 18v33l204 58l8 -7v-393q0 -37 18 -55t68 -18l4 -8l-4 -31h-298zM58 556q-30 0 -52 21.5t-22 52.5q0 30 22 52t52 22t52 -22t22 -52q0 -31 -22 -52.5t-52 -21.5zM260 556q-30 0 -52 21.5t-22 52.5q0 30 22 52t52 22t52 -22t22 -52
q0 -31 -22 -52.5t-52 -21.5z" />
    <glyph glyph-name="eth" unicode="&#xf0;" horiz-adv-x="556" 
d="M304 653q113 -77 175 -182t62 -221q0 -56 -17 -104t-50.5 -83t-83 -55t-113.5 -20t-113 20t-82 55t-50 83t-17 104q0 55 17 103t50 83.5t82 55.5t113 20q22 0 43 -3q-39 49 -97 89l-108 -74l-17 51l78 53q-62 35 -143 66l18 57q57 -11 107.5 -28.5t95.5 -40.5l113 77
l17 -51zM277 31q58 0 92 55.5t34 163.5q0 106 -34 162.5t-92 56.5q-57 0 -90.5 -56.5t-33.5 -162.5q0 -108 33.5 -163.5t90.5 -55.5z" />
    <glyph glyph-name="ntilde" unicode="&#xf1;" horiz-adv-x="660" 
d="M357 0v39q42 0 57 18.5t15 55.5v208q0 51 -20.5 83.5t-73.5 32.5q-5 0 -17.5 -2t-28 -9.5t-32 -22t-29.5 -38.5v-252q0 -37 17.5 -55.5t65.5 -18.5l4 -8l-4 -31h-295v39q48 0 66 18.5t18 55.5v290l-84 18v33l204 58l8 -7v-95h4q53 102 162 102q81 0 122 -46.5t41 -123.5
v-229q0 -37 19 -55.5t63 -18.5l5 -8l-5 -31h-282zM531 666q-8 -18 -19.5 -36t-25 -33t-29 -26t-33.5 -15q-23 0 -47 7t-48 15t-47 15t-45 7q-25 0 -45.5 -12t-40.5 -32l-23 19q8 18 19.5 35.5t25 32.5t29 25.5t33.5 14.5q22 0 46.5 -7t48.5 -15t47.5 -15t44.5 -7q25 0 46 13
t41 33z" />
    <glyph glyph-name="ograve" unicode="&#xf2;" horiz-adv-x="558" 
d="M279 31q57 0 89.5 55.5t32.5 163.5q0 106 -32.5 162.5t-89.5 56.5t-89.5 -56.5t-32.5 -162.5q1 -108 33 -163.5t89 -55.5zM543 250q0 -56 -17 -104t-50 -83t-82.5 -55t-114.5 -20t-114.5 20t-82.5 55t-50 83t-17 104q0 55 17 103t50 83.5t82.5 55.5t114.5 20t114.5 -20
t82.5 -55.5t50 -83.5t17 -103zM351 550l-180 194q13 31 35 46q23 17 54 17l126 -231l-15 -17z" />
    <glyph glyph-name="oacute" unicode="&#xf3;" horiz-adv-x="558" 
d="M279 31q57 0 89.5 55.5t32.5 163.5q0 106 -32.5 162.5t-89.5 56.5t-89.5 -56.5t-32.5 -162.5q1 -108 33 -163.5t89 -55.5zM543 250q0 -56 -17 -104t-50 -83t-82.5 -55t-114.5 -20t-114.5 20t-82.5 55t-50 83t-17 104q0 55 17 103t50 83.5t82.5 55.5t114.5 20t114.5 -20
t82.5 -55.5t50 -83.5t17 -103zM237 559l-15 17l126 231q31 0 54 -17q22 -15 35 -46l-180 -194z" />
    <glyph glyph-name="ocircumflex" unicode="&#xf4;" horiz-adv-x="558" 
d="M279 31q57 0 89.5 55.5t32.5 163.5q0 106 -32.5 162.5t-89.5 56.5t-89.5 -56.5t-32.5 -162.5q1 -108 33 -163.5t89 -55.5zM543 250q0 -56 -17 -104t-50 -83t-82.5 -55t-114.5 -20t-114.5 20t-82.5 55t-50 83t-17 104q0 55 17 103t50 83.5t82.5 55.5t114.5 20t114.5 -20
t82.5 -55.5t50 -83.5t17 -103zM399 551l-121 153l-120 -153l-20 9l-15 17l126 226q17 5 30 5q8 0 14.5 -1.5t14.5 -3.5l126 -226l-15 -17z" />
    <glyph glyph-name="otilde" unicode="&#xf5;" horiz-adv-x="558" 
d="M279 31q57 0 89.5 55.5t32.5 163.5q0 106 -32.5 162.5t-89.5 56.5t-89.5 -56.5t-32.5 -162.5q1 -108 33 -163.5t89 -55.5zM543 250q0 -56 -17 -104t-50 -83t-82.5 -55t-114.5 -20t-114.5 20t-82.5 55t-50 83t-17 104q0 55 17 103t50 83.5t82.5 55.5t114.5 20t114.5 -20
t82.5 -55.5t50 -83.5t17 -103zM480 666q-8 -18 -19.5 -36t-25 -33t-29 -26t-33.5 -15q-23 0 -47 7t-48 15t-47 15t-45 7q-25 0 -45.5 -12t-40.5 -32l-23 19q8 18 19.5 35.5t25 32.5t29 25.5t33.5 14.5q22 0 46.5 -7t48.5 -15t47.5 -15t44.5 -7q25 0 46 13t41 33z" />
    <glyph glyph-name="odieresis" unicode="&#xf6;" horiz-adv-x="558" 
d="M279 31q57 0 89.5 55.5t32.5 163.5q0 106 -32.5 162.5t-89.5 56.5t-89.5 -56.5t-32.5 -162.5q1 -108 33 -163.5t89 -55.5zM543 250q0 -56 -17 -104t-50 -83t-82.5 -55t-114.5 -20t-114.5 20t-82.5 55t-50 83t-17 104q0 55 17 103t50 83.5t82.5 55.5t114.5 20t114.5 -20
t82.5 -55.5t50 -83.5t17 -103zM178 556q-30 0 -52 21.5t-22 52.5q0 30 22 52t52 22t52 -22t22 -52q0 -31 -22 -52.5t-52 -21.5zM380 556q-30 0 -52 21.5t-22 52.5q0 30 22 52t52 22t52 -22t22 -52q0 -31 -22 -52.5t-52 -21.5z" />
    <glyph glyph-name="divide" unicode="&#xf7;" horiz-adv-x="637" 
d="M55 221v79h527v-79h-527zM322 -10q-31 0 -53.5 22t-22.5 54t22.5 54t53.5 22q32 0 54 -22t22 -54t-22 -54t-54 -22zM322 380q-31 0 -53.5 22t-22.5 54t22.5 54t53.5 22q32 0 54 -22t22 -54t-22 -54t-54 -22z" />
    <glyph glyph-name="oslash" unicode="&#xf8;" horiz-adv-x="558" 
d="M99 -19l27 46q-55 35 -83 93t-28 130q0 55 17 103t50 83.5t82.5 55.5t114.5 20t115 -21l29 51l37 -21l-28 -49q55 -34 83 -92t28 -130q0 -56 -17 -104t-50 -83t-82.5 -55t-114.5 -20q-33 0 -61.5 5.5t-53.5 14.5l-28 -48zM200 71q30 -40 79 -40q57 0 89.5 55.5
t32.5 163.5q0 80 -20 134zM357 428q-30 41 -78 41q-57 0 -89.5 -56.5t-32.5 -162.5q0 -82 20 -134z" />
    <glyph glyph-name="ugrave" unicode="&#xf9;" horiz-adv-x="655" 
d="M435 -12l-8 7v88h-4q-52 -95 -164 -95q-81 0 -122 46.5t-41 123.5v205q0 37 -19.5 50.5t-66.5 13.5l-5 8l4 35l199 30h16v-321q0 -52 20.5 -84t73.5 -32q6 0 19 2t28.5 9.5t32 22t29.5 38.5v228q0 37 -18 50.5t-68 13.5l-4 8l4 34l197 31h17v-408l84 -17v-29zM369 550
l-180 194q13 31 35 46q23 17 54 17l126 -231l-15 -17z" />
    <glyph glyph-name="uacute" unicode="&#xfa;" horiz-adv-x="655" 
d="M435 -12l-8 7v88h-4q-52 -95 -164 -95q-81 0 -122 46.5t-41 123.5v205q0 37 -19.5 50.5t-66.5 13.5l-5 8l4 35l199 30h16v-321q0 -52 20.5 -84t73.5 -32q6 0 19 2t28.5 9.5t32 22t29.5 38.5v228q0 37 -18 50.5t-68 13.5l-4 8l4 34l197 31h17v-408l84 -17v-29zM266 559
l-15 17l126 231q31 0 54 -17q22 -15 35 -46l-180 -194z" />
    <glyph glyph-name="ucircumflex" unicode="&#xfb;" horiz-adv-x="655" 
d="M435 -12l-8 7v88h-4q-52 -95 -164 -95q-81 0 -122 46.5t-41 123.5v205q0 37 -19.5 50.5t-66.5 13.5l-5 8l4 35l199 30h16v-321q0 -52 20.5 -84t73.5 -32q6 0 19 2t28.5 9.5t32 22t29.5 38.5v228q0 37 -18 50.5t-68 13.5l-4 8l4 34l197 31h17v-408l84 -17v-29zM448 551
l-121 153l-120 -153l-20 9l-15 17l126 226q17 5 30 5q8 0 14.5 -1.5t14.5 -3.5l126 -226l-15 -17z" />
    <glyph glyph-name="udieresis" unicode="&#xfc;" horiz-adv-x="655" 
d="M435 -12l-8 7v88h-4q-52 -95 -164 -95q-81 0 -122 46.5t-41 123.5v205q0 37 -19.5 50.5t-66.5 13.5l-5 8l4 35l199 30h16v-321q0 -52 20.5 -84t73.5 -32q6 0 19 2t28.5 9.5t32 22t29.5 38.5v228q0 37 -18 50.5t-68 13.5l-4 8l4 34l197 31h17v-408l84 -17v-29zM226 556
q-30 0 -52 21.5t-22 52.5q0 30 22 52t52 22t52 -22t22 -52q0 -31 -22 -52.5t-52 -21.5zM428 556q-30 0 -52 21.5t-22 52.5q0 30 22 52t52 22t52 -22t22 -52q0 -31 -22 -52.5t-52 -21.5z" />
    <glyph glyph-name="yacute" unicode="&#xfd;" horiz-adv-x="574" 
d="M260 0l-184 437l-75 30v33h281v-33l-71 -30l110 -291h6l104 291l-71 30v33h209v-33l-75 -30l-251 -618q-14 -35 -33 -57t-39.5 -34.5t-42 -17t-40.5 -4.5q-52 0 -77.5 27t-25.5 65q0 36 24 55.5t56 19.5l7 -6l39 -108l6 -5q30 0 51 24t35 63zM283 559l-15 17l126 231
q31 0 54 -17q22 -15 35 -46l-180 -194z" />
    <glyph glyph-name="thorn" unicode="&#xfe;" horiz-adv-x="609" 
d="M227 117q14 -49 44 -68t66 -19q30 0 53.5 16.5t40 44.5t25.5 65.5t9 80.5q0 37 -8.5 70t-25.5 58t-43.5 39.5t-62.5 14.5q-29 0 -55 -13t-43 -41v-248zM25 -289v39q40 0 57 17.5t17 56.5v852l-84 18v33l204 58l8 -7v-366h4q32 57 70.5 78.5t83.5 21.5q58 0 97.5 -21.5
t64.5 -56.5t36 -79.5t11 -90.5q0 -57 -16 -107.5t-47 -88t-76.5 -59t-103.5 -21.5q-5 0 -19 0.5t-32 4.5t-38 12t-35 23v-203q0 -19 4 -33t17 -23.5t35.5 -14t60.5 -4.5l4 -8l-4 -31h-319z" />
    <glyph glyph-name="ydieresis" unicode="&#xff;" horiz-adv-x="574" 
d="M260 0l-184 437l-75 30v33h281v-33l-71 -30l110 -291h6l104 291l-71 30v33h209v-33l-75 -30l-251 -618q-14 -35 -33 -57t-39.5 -34.5t-42 -17t-40.5 -4.5q-52 0 -77.5 27t-25.5 65q0 36 24 55.5t56 19.5l7 -6l39 -108l6 -5q30 0 51 24t35 63zM211 556q-30 0 -52 21.5
t-22 52.5q0 30 22 52t52 22t52 -22t22 -52q0 -31 -22 -52.5t-52 -21.5zM413 556q-30 0 -52 21.5t-22 52.5q0 30 22 52t52 22t52 -22t22 -52q0 -31 -22 -52.5t-52 -21.5z" />
    <glyph glyph-name="dotlessi" unicode="&#x131;" horiz-adv-x="334" 
d="M16 0v39q48 0 66 18t18 55v291l-84 18v33l204 58l8 -7v-393q0 -37 18 -55t68 -18l4 -8l-4 -31h-298z" />
    <glyph glyph-name="OE" unicode="&#x152;" horiz-adv-x="995" 
d="M485 0q-17 -5 -42 -10t-54 -5q-78 0 -143.5 26t-113.5 73.5t-74.5 114.5t-26.5 150t26.5 150.5t74.5 115.5t114.5 74t146.5 26q32 0 55 -5t37 -10h432l13 -9l-35 -153l-8 -5h-21q-12 125 -133 125h-60q-50 0 -68 -18.5t-18 -52.5v-212h131q38 0 56.5 21t18.5 84h42v-241
l-34 -4l-8 4q0 53 -19 72t-56 19h-131v-217q0 -33 15.5 -52t60.5 -19h97q17 0 41 5t49.5 18.5t50.5 38t44 64.5l20 -7l4 -9l-40 -152h-444zM453 658q-27 9 -59 9q-52 0 -91.5 -24.5t-66.5 -67.5t-41 -101t-14 -125t14 -125t41 -100.5t66.5 -66.5t91.5 -24q29 0 59 8v617z
" />
    <glyph glyph-name="oe" unicode="&#x153;" horiz-adv-x="880" 
d="M865 119q-30 -63 -84 -97t-123 -34q-53 0 -100.5 18t-82.5 56q-33 -35 -82 -54.5t-114 -19.5t-114.5 20t-82.5 55t-50 83t-17 104q0 55 17 103t50 83.5t82.5 55.5t114.5 20q68 0 118.5 -22t83.5 -60q38 43 87 62.5t91 19.5q54 0 92.5 -14.5t63 -40t36.5 -60t12 -75.5
h-316q-2 -14 -3.5 -28t-0.5 -39q1 -50 16.5 -82.5t38 -52.5t48 -28t47.5 -8q48 0 86.5 14.5t65.5 36.5l7 -1zM279 31q57 0 89.5 55.5t32.5 163.5q0 106 -32.5 162.5t-89.5 56.5t-89.5 -56.5t-32.5 -162.5q1 -108 33 -163.5t89 -55.5zM746 366q0 56 -20 80.5t-65 24.5
q-14 0 -30 -5.5t-31 -18.5t-27 -33t-18 -48h191z" />
    <glyph glyph-name="Scaron" unicode="&#x160;" horiz-adv-x="518" 
d="M105 947l15 17l20 9l120 -118l121 118l20 -9l15 -17l-126 -191q-8 -2 -14.5 -3.5t-14.5 -1.5q-13 0 -30 5zM16 190l10 9l48 3q0 -40 15.5 -71t40.5 -52.5t56.5 -32.5t64.5 -11q21 0 42.5 6t39.5 19.5t29.5 35.5t11.5 54q0 41 -25 67.5t-63 48t-82 42t-82 48.5t-63 68.5
t-25 101.5q0 47 20 82.5t51.5 59t70.5 35.5t78 12q16 0 38.5 -2t43.5 -5t37.5 -5t22.5 -2q14 0 33.5 1.5t32.5 11.5l13 -9l-35 -159l-7 -5h-23q0 22 -10 44t-29 40t-47 29.5t-64 11.5q-17 0 -35.5 -4.5t-34 -16t-26 -30.5t-10.5 -48q0 -44 26 -72t64.5 -49.5t83.5 -41.5
t83.5 -47.5t64.5 -67t26 -99.5q0 -47 -21 -84.5t-55.5 -64.5t-78 -41.5t-87.5 -14.5q-12 0 -35.5 1t-54.5 5.5t-67.5 15t-75.5 30.5z" />
    <glyph glyph-name="scaron" unicode="&#x161;" horiz-adv-x="421" 
d="M19 151l8 7l41 4q2 -26 13 -49.5t28.5 -41t39.5 -28t46 -10.5q12 0 26 3.5t26.5 12.5t20.5 25t8 40q0 26 -17.5 44t-43.5 32.5t-57 29t-57 35t-43.5 48.5t-17.5 71q0 34 15 60t40 43.5t58.5 26t71.5 8.5q35 0 58 -4.5t43 -4.5q10 0 21.5 1.5t25.5 7.5l10 -5l-14 -141
l-10 -5h-29q0 21 -6 40.5t-18 35t-31 25t-46 9.5q-9 0 -20.5 -3t-22 -11t-18 -21.5t-7.5 -33.5q0 -29 18 -48.5t44.5 -34.5t58 -29.5t58 -34t44.5 -47t18 -69.5q0 -34 -15.5 -61.5t-41.5 -47.5t-60.5 -31t-72.5 -11q-10 0 -29 0.5t-44 4t-53.5 10.5t-56.5 20zM75 782l15 17
l20 9l120 -151l121 151l20 -9l15 -17l-126 -226q-8 -2 -14.5 -3.5t-14.5 -1.5q-13 0 -30 5z" />
    <glyph glyph-name="Ydieresis" unicode="&#x178;" horiz-adv-x="689" 
d="M181 0v42q55 0 74.5 18t19.5 53v170l-174 313q-9 17 -22 34t-33 24l-39 13v33h325v-31l-62 -18q-32 -10 -32 -33q0 -6 2.5 -13t6.5 -14l137 -259l145 262q5 10 7 16.5t2 11.5q0 11 -5 18.5t-19 11.5l-67 17v31h235v-30l-37 -14q-19 -8 -29.5 -25.5t-21.5 -32.5l-185 -308
v-177q0 -17 4 -30.5t15 -22.5t29.5 -13.5t47.5 -4.5l4 -8l-4 -34h-324zM276 756q-30 0 -52 21.5t-22 52.5q0 30 22 52t52 22t52 -22t22 -52q0 -31 -22 -52.5t-52 -21.5zM478 756q-30 0 -52 21.5t-22 52.5q0 30 22 52t52 22t52 -22t22 -52q0 -31 -22 -52.5t-52 -21.5z" />
    <glyph glyph-name="Zcaron" unicode="&#x17d;" horiz-adv-x="661" 
d="M34 0v38l400 611l-2 10l-209 -10q-29 -2 -51 -16t-37 -36.5t-23 -51.5t-8 -60l-12 -8l-35 7l11 216h537v-38l-400 -613l3 -8l246 11q59 3 91 50t32 123l12 9l38 -9l-10 -225h-583zM197 947l15 17l20 9l120 -118l121 118l20 -9l15 -17l-126 -191q-8 -2 -14.5 -3.5
t-14.5 -1.5q-13 0 -30 5z" />
    <glyph glyph-name="zcaron" unicode="&#x17e;" horiz-adv-x="467" 
d="M19 0v27l269 433l-2 7l-131 -8q-19 -1 -34.5 -11t-26 -26.5t-16.5 -38.5t-6 -46l-9 -6l-28 5l8 164h391v-27l-264 -433l2 -6l152 7q40 2 62.5 36t22.5 88l9 6l30 -6l-7 -165h-422zM78 782l15 17l20 9l120 -151l121 151l20 -9l15 -17l-126 -226q-8 -2 -14.5 -3.5
t-14.5 -1.5q-13 0 -30 5z" />
    <glyph glyph-name="florin" unicode="&#x192;" horiz-adv-x="646" 
d="M70 -175q31 0 54.5 8.5t40.5 28.5t28 54.5t18 86.5l50 364h-129l5 49h130l13 91q7 50 33.5 87.5t63 62t79 37t81.5 12.5q57 0 91.5 -27t31.5 -78q-1 -18 -10 -31t-22.5 -22t-29 -13t-29.5 -4l-6 6l-10 124l-7 5q-60 0 -92.5 -28.5t-38.5 -73.5l-20 -148h168l-7 -49h-167
l-53 -383q-7 -50 -34.5 -87.5t-64.5 -62.5t-79 -37t-79 -12q-57 0 -91.5 27t-31.5 78q1 18 10 31t22.5 22t29 13t29.5 4l6 -6l10 -124z" />
    <glyph glyph-name="circumflex" unicode="&#x2c6;" horiz-adv-x="421" 
d="M331 551l-121 153l-120 -153l-20 9l-15 17l126 226q17 5 30 5q8 0 14.5 -1.5t14.5 -3.5l126 -226l-15 -17z" />
    <glyph glyph-name="caron" unicode="&#x2c7;" horiz-adv-x="421" 
d="M55 782l15 17l20 9l120 -151l121 151l20 -9l15 -17l-126 -226q-8 -2 -14.5 -3.5t-14.5 -1.5q-13 0 -30 5z" />
    <glyph glyph-name="ring" unicode="&#x2da;" horiz-adv-x="374" 
d="M187 551q-27 0 -51 10t-42 28t-28.5 42t-10.5 52q0 27 10.5 51t28.5 42t42 28.5t51 10.5t51 -10.5t42 -28.5t28.5 -42t10.5 -51q0 -28 -10.5 -52t-28.5 -42t-42 -28t-51 -10zM264 683q0 32 -22.5 54.5t-54.5 22.5t-54.5 -22.5t-22.5 -54.5q0 -33 22.5 -55t54.5 -22
t54.5 22t22.5 55z" />
    <glyph glyph-name="tilde" unicode="&#x2dc;" horiz-adv-x="513" 
d="M458 666q-8 -18 -19.5 -36t-25 -33t-29 -26t-33.5 -15q-23 0 -47 7t-48 15t-47 15t-45 7q-25 0 -45.5 -12t-40.5 -32l-23 19q8 18 19.5 35.5t25 32.5t29 25.5t33.5 14.5q22 0 46.5 -7t48.5 -15t47.5 -15t44.5 -7q25 0 46 13t41 33z" />
    <glyph glyph-name="endash" unicode="&#x2013;" horiz-adv-x="698" 
d="M55 222v79h588v-79h-588z" />
    <glyph glyph-name="emdash" unicode="&#x2014;" horiz-adv-x="1099" 
d="M55 222v79h989v-79h-989z" />
    <glyph glyph-name="quoteleft" unicode="&#x2018;" horiz-adv-x="286" 
d="M199 762q-45 -37 -67.5 -88t-17.5 -105q16 8 35 8q33 0 57.5 -23.5t24.5 -58.5q0 -34 -24.5 -58t-57.5 -24q-27 0 -45.5 13t-29 33.5t-15 45t-4.5 47.5q0 66 31.5 129.5t92.5 108.5l20 -24v-4z" />
    <glyph glyph-name="quoteright" unicode="&#x2019;" horiz-adv-x="286" 
d="M87 434v4q45 37 67.5 87.5t17.5 104.5q-15 -7 -35 -7q-33 0 -57.5 23.5t-24.5 58.5q0 34 24.5 58t57.5 24q27 0 45 -13.5t29 -34t15.5 -45t4.5 -46.5q0 -66 -31.5 -129.5t-92.5 -108.5z" />
    <glyph glyph-name="quotesinglbase" unicode="&#x201a;" horiz-adv-x="306" 
d="M97 -201v4q45 37 67.5 88t17.5 105q-18 -8 -35 -8q-33 0 -57.5 23.5t-24.5 58.5q0 34 24.5 58t57.5 24q27 0 45 -13.5t29 -34t15.5 -45t4.5 -46.5q0 -66 -31.5 -129.5t-92.5 -108.5z" />
    <glyph glyph-name="quotedblleft" unicode="&#x201c;" horiz-adv-x="520" 
d="M433 762q-45 -37 -67.5 -88t-17.5 -105q16 8 35 8q33 0 57.5 -23.5t24.5 -58.5q0 -34 -24.5 -58t-57.5 -24q-27 0 -45.5 13t-29 33.5t-15 45t-4.5 47.5q0 66 31.5 129.5t92.5 108.5l20 -24v-4zM199 762q-45 -37 -67.5 -88t-17.5 -105q16 8 35 8q33 0 57.5 -23.5
t24.5 -58.5q0 -34 -24.5 -58t-57.5 -24q-27 0 -45.5 13t-29 33.5t-15 45t-4.5 47.5q0 66 31.5 129.5t92.5 108.5l20 -24v-4z" />
    <glyph glyph-name="quotedblright" unicode="&#x201d;" horiz-adv-x="520" 
d="M87 434v4q45 37 67.5 87.5t17.5 104.5q-15 -7 -35 -7q-33 0 -57.5 23.5t-24.5 58.5q0 34 24.5 58t57.5 24q27 0 45 -13.5t29 -34t15.5 -45t4.5 -46.5q0 -66 -31.5 -129.5t-92.5 -108.5zM321 434v4q45 37 67.5 87.5t17.5 104.5q-15 -7 -35 -7q-33 0 -57.5 23.5t-24.5 58.5
q0 34 24.5 58t57.5 24q27 0 45 -13.5t29 -34t15.5 -45t4.5 -46.5q0 -66 -31.5 -129.5t-92.5 -108.5z" />
    <glyph glyph-name="quotedblbase" unicode="&#x201e;" horiz-adv-x="540" 
d="M97 -201v4q45 37 67.5 88t17.5 105q-18 -8 -35 -8q-33 0 -57.5 23.5t-24.5 58.5q0 34 24.5 58t57.5 24q27 0 45 -13.5t29 -34t15.5 -45t4.5 -46.5q0 -66 -31.5 -129.5t-92.5 -108.5zM331 -201v4q45 37 67.5 88t17.5 105q-18 -8 -35 -8q-33 0 -57.5 23.5t-24.5 58.5
q0 34 24.5 58t57.5 24q27 0 45 -13.5t29 -34t15.5 -45t4.5 -46.5q0 -66 -31.5 -129.5t-92.5 -108.5z" />
    <glyph glyph-name="dagger" unicode="&#x2020;" horiz-adv-x="729" 
d="M365 468l-24 5l-33 262q28 16 57 16q16 0 30.5 -5t25.5 -13l-33 -260zM71 375q-16 28 -16 57q0 16 5 30.5t13 25.5l250 -33l5 -23l-5 -24zM406 408l-5 24l5 23l250 33q8 -11 13 -25.5t5 -30.5q0 -29 -16 -57zM365 -295l-17 9l-40 441l33 235l24 5l23 -5l33 -235l-40 -441
z" />
    <glyph glyph-name="daggerdbl" unicode="&#x2021;" horiz-adv-x="729" 
d="M365 468l-24 5l-33 262q28 16 57 16q16 0 30.5 -5t25.5 -13l-33 -260zM71 375q-16 28 -16 57q0 16 5 30.5t13 25.5l250 -33l5 -23l-5 -24zM406 408l-5 24l5 23l250 33q8 -11 13 -25.5t5 -30.5q0 -29 -16 -57zM341 -14l24 5l23 -5l33 -262q-11 -8 -25.5 -13t-30.5 -5
q-29 0 -57 16zM73 -29q-8 11 -13 25.5t-5 30.5q0 29 16 57l252 -33l5 -24l-5 -23zM406 4l-5 23l5 24l252 33q16 -28 16 -57q0 -16 -5 -30.5t-13 -25.5zM365 59l-24 5l-29 164l29 162l24 5l23 -5l28 -162l-28 -164z" />
    <glyph glyph-name="bullet" unicode="&#x2022;" horiz-adv-x="394" 
d="M197 119q-29 0 -54.5 11t-45 30.5t-31 45t-11.5 55.5q0 29 11.5 55t31 45.5t45 30.5t54.5 11t55 -11t45.5 -30.5t30.5 -45.5t11 -55q0 -30 -11 -55.5t-30.5 -45t-45.5 -30.5t-55 -11z" />
    <glyph glyph-name="ellipsis" unicode="&#x2026;" horiz-adv-x="852" 
d="M147 -12q-33 0 -57.5 23.5t-24.5 58.5q0 34 24.5 58t57.5 24q34 0 58 -24t24 -58q0 -35 -24 -58.5t-58 -23.5zM426 -12q-33 0 -57.5 23.5t-24.5 58.5q0 34 24.5 58t57.5 24q34 0 58 -24t24 -58q0 -35 -24 -58.5t-58 -23.5zM705 -12q-33 0 -57.5 23.5t-24.5 58.5
q0 34 24.5 58t57.5 24q34 0 58 -24t24 -58q0 -35 -24 -58.5t-58 -23.5z" />
    <glyph glyph-name="perthousand" unicode="&#x2030;" horiz-adv-x="1219" 
d="M168 -4l436 705l41 -30l-436 -706zM221 382q29 0 50.5 37t21.5 106q0 67 -21.5 104.5t-50.5 37.5t-50.5 -37.5t-21.5 -104.5q1 -69 22 -106t50 -37zM221 350q-40 0 -71 13.5t-52 37t-32 55.5t-11 69q0 36 11.5 68t32.5 56t52 37.5t70 13.5t70 -13.5t52 -37.5t32.5 -56
t11.5 -68q0 -37 -11.5 -69t-32.5 -55.5t-52 -37t-70 -13.5zM597 20q29 0 50.5 37t21.5 106q0 67 -21.5 104.5t-50.5 37.5t-50.5 -37.5t-21.5 -104.5q1 -69 22 -106t50 -37zM597 -12q-40 0 -71 13.5t-52 37t-32 55.5t-11 69q0 36 11.5 68t32.5 56t52 37.5t70 13.5t70 -13.5
t52 -37.5t32.5 -56t11.5 -68q0 -37 -11.5 -69t-32.5 -55.5t-52 -37t-70 -13.5zM998 20q29 0 50.5 37t21.5 106q0 67 -21.5 104.5t-50.5 37.5t-50.5 -37.5t-21.5 -104.5q1 -69 22 -106t50 -37zM998 -12q-40 0 -71 13.5t-52 37t-32 55.5t-11 69q0 36 11.5 68t32.5 56t52 37.5
t70 13.5t70 -13.5t52 -37.5t32.5 -56t11.5 -68q0 -37 -11.5 -69t-32.5 -55.5t-52 -37t-70 -13.5z" />
    <glyph glyph-name="guilsinglleft" unicode="&#x2039;" horiz-adv-x="385" 
d="M273 2l-218 254v11l227 254l40 -41l3 -14l-163 -204l163 -213l-3 -13z" />
    <glyph glyph-name="guilsinglright" unicode="&#x203a;" horiz-adv-x="385" 
d="M63 36l-3 13l163 213l-163 204l3 14l40 41l227 -254v-11l-218 -254z" />
    <glyph glyph-name="Euro" unicode="&#x20ac;" horiz-adv-x="774" 
d="M725 20q-16 -8 -41.5 -14t-54 -11t-57 -7.5t-50.5 -2.5q-72 0 -135.5 16.5t-114 49.5t-86 83t-50.5 117h-131l10 45h113q-3 25 -3 53t3 54h-123l10 45h121q15 67 50.5 117t85.5 83.5t113 50t134 16.5q16 0 38 -2t44 -5t41.5 -5t32.5 -2q21 0 34 4t20 9l13 -9l-35 -159
l-7 -5h-21q-4 32 -20 55.5t-39 39t-49.5 23t-51.5 7.5q-97 0 -157 -57.5t-80 -160.5h351l-10 -45h-348q-9 -54 0 -107h358l-10 -45h-341q20 -101 80.5 -158t157.5 -57q16 0 42.5 3t56.5 15.5t59 37.5t51 69l25 -7l4 -9z" />
    <glyph glyph-name="trademark" unicode="&#x2122;" horiz-adv-x="618" 
d="M100 509v18q20 0 26 5.5t6 15.5v132q-4 0 -13 -1.5t-19.5 -6t-20 -12t-13.5 -18.5l-10 2l-1 3l7 53h193l6 -53l-1 -3l-10 -2q-5 11 -14 18.5t-19.5 12t-19.5 6t-13 1.5v-132q0 -10 6 -15.5t26 -5.5l1 -3l-1 -15h-116zM452 509v16q19 0 25 5t6 14l-10 116l-66 -151h-11
l-70 151l-9 -116q-1 -9 4.5 -14t25.5 -5l1 -3l-1 -13h-84v16q17 0 22 5t6 14l9 122q-1 8 -6 13t-22 5v16h93l49 -113l49 113h91l1 -13l-1 -3q-17 0 -23 -5t-6 -15l9 -120q1 -9 6 -14t22 -5l1 -3l-1 -13h-110z" />
    <glyph glyph-name="uniE003" unicode="&#xe003;" horiz-adv-x="343" 
d="M77 752l-17 14l-10 20l174 185q14 -4 26.5 -12t20.5 -19q10 -11 15 -24.5t7 -28.5z" />
    <glyph glyph-name="uniE004" unicode="&#xe004;" horiz-adv-x="343" 
d="M266 752l-216 135q2 15 7 28.5t15 24.5q8 11 20.5 19t26.5 12l174 -185l-10 -20z" />
    <glyph glyph-name="uniE005" unicode="&#xe005;" horiz-adv-x="411" 
d="M326 751l-121 118l-120 -118l-20 9l-15 17l126 191q17 5 30 5q8 0 14.5 -1.5t14.5 -3.5l126 -191l-15 -17z" />
    <glyph glyph-name="uniE006" unicode="&#xe006;" horiz-adv-x="450" 
d="M124 756q-30 0 -52 21.5t-22 52.5q0 30 22 52t52 22t52 -22t22 -52q0 -31 -22 -52.5t-52 -21.5zM326 756q-30 0 -52 21.5t-22 52.5q0 30 22 52t52 22t52 -22t22 -52q0 -31 -22 -52.5t-52 -21.5z" />
    <glyph glyph-name="uniE007" unicode="&#xe007;" horiz-adv-x="503" 
d="M453 876q-8 -18 -19.5 -36t-25 -33t-29 -26t-33.5 -15q-23 0 -47 7t-48 15t-47 15t-45 7q-25 0 -45.5 -12t-40.5 -32l-23 19q8 18 19.5 35.5t25 32.5t29 25.5t33.5 14.5q22 0 46.5 -7t48.5 -15t47.5 -15t44.5 -7q25 0 46 13t41 33z" />
    <glyph glyph-name="uniE008" unicode="&#xe008;" horiz-adv-x="411" 
d="M50 947l15 17l20 9l120 -118l121 118l20 -9l15 -17l-126 -191q-8 -2 -14.5 -3.5t-14.5 -1.5q-13 0 -30 5z" />
    <glyph glyph-name="glyph231" horiz-adv-x="0" 
 />
    <glyph glyph-name="glyph232" horiz-adv-x="0" 
 />
    </font>
</defs>
</svg>
